Filmbol Forum Film İndir 3D v Çılgın Hırsız 3 (Despicable Me 3) - 2017 - TR+ORG - 3D
Moderatör Alımları Başladı! Başvuru yapmak için tıklayın.
Filmbol Premium'da %50'e varan indirim fırsatı!
Çılgın Hırsız 3 (Despicable Me 3) - 2017 - TR+ORG - 3D
BroserBros
Çılgın Hırsız 3 (Despicable Me 3) - 2017 - TR+ORG - 3D
0
145
  • Derecelendirme: 0/5 - 0 oy
  • 1
  • 2
  • 3
  • 4
  • 5
Konuyu Okuyanlar:1 Ziyaretçi
Şuan Offine!
Filmin Yayınlanma Tarihi: 2017 
Şuan Offine!
BroserBros Kurucu Admin
*******
Admin

Vizyon Tarihi


25 Ağustos 2017

imdb puanı


6,3 / 110,000

süre


89 dakika

Editör Puanı


7,2 / 10

Video Format: Mkv


Matroska (.MKV)

Ses Kodek: AC3


Audio Coding 3 (AC3)

sürüm


x264 | 3D | BluRay

Boyutlar


1,76 GB



 Çılgın Hırsız 3



Gru, insanlığı tehdit eden son kötüyü ele geçirmekte başarısız olunca Anti-Kötüler Birliği’nden kovulur. Artık büyük bir kimlik krizinin ortasındadır. Ancak, gizemli bir yabancı ortaya çıkar ve Gru’ya uzun zaman önce kaybettiği ikiz erkek kardeşinin haberini verir. Kardeşi, ikizinin çılgın adımlarını umutsuzca takip etmek isterken eski bir süper kötü de kötü olmanın ne kadar iyi bir his olduğunu yeniden keşfedecektir.

Çılgın Hırsız 3 (2017) (Despicable Me 3) Filmi Imdb'den 110,000 kişi tarafından oylandı ve 6,3 puan aldı. Bu film için editör puanı 7,2 olarak belirlendi. İyi Seyirler!

Teknik Detaylar

Kod :
General
Unique ID                                : 106627753146370656982285646835165901939 (0x5037C21DE64FE76DE75FE8CA52DF3473)
Complete name                            : /root/Desktop/4/Çılgın.Hırsız.3.2017.3D.HSBS.BluRay.x264.TR.ENG.Filmbol.mkv
Format                                  : Matroska
Format version                          : Version 4 / Version 2
File size                                : 1.76 GiB
Duration                                : 1h 29mn
Overall bit rate                        : 2 810 Kbps
Movie name                              : Çılgın Hırsız 3 - Despicable Me 3 - 2017 | Filmbol.org
Encoded date                            : UTC 2020-06-10 11:16:14
Writing application                      : mkvmerge v8.8.0 ('Wind at my back') 64bit
Writing library                          : libebml v1.3.3 + libmatroska v1.4.4

Video
ID                                      : 1
Format                                  : AVC
Format/Info                              : Advanced Video Codec
Format profile                          : High@L4.1
Format settings, CABAC                  : Yes
Format settings, ReFrames                : 4 frames
Codec ID                                : V_MPEG4/ISO/AVC
Duration                                : 1h 29mn
Bit rate                                : 2 050 Kbps
Width                                    : 1 920 pixels
Height                                  : 800 pixels
Display aspect ratio                    : 2.40:1
Frame rate mode                          : Constant
Frame rate                              : 23.976 (24000/1001) fps
Color space                              : YUV
Chroma subsampling                      : 4:2:0
Bit depth                                : 8 bits
Scan type                                : Progressive
Bits/(Pixel*Frame)                      : 0.056
Stream size                              : 1.28 GiB (73%)
Title                                    : 3D - Filmbol.org
Writing library                          : x264 core 148
Encoding settings                        : cabac=1 / ref=4 / deblock=1:-1:-1 / analyse=0x3:0x133 / me=umh / subme=9 / psy=1 / psy_rd=1.00:0.15 / mixed_ref=1 / me_range=24 / chroma_me=1 / trellis=2 / 8x8dct=1 / cqm=0 / deadzone=21,11 / fast_pskip=0 / chroma_qp_offset=-3 / threads=12 / lookahead_threads=1 / sliced_threads=0 / nr=0 / decimate=1 / interlaced=0 / bluray_compat=0 / constrained_intra=0 / bframes=3 / b_pyramid=2 / b_adapt=2 / b_bias=0 / direct=3 / weightb=1 / open_gop=0 / weightp=2 / keyint=250 / keyint_min=23 / scenecut=40 / intra_refresh=0 / rc_lookahead=60 / rc=2pass / mbtree=1 / bitrate=2050 / ratetol=1.0 / qcomp=0.60 / qpmin=0 / qpmax=69 / qpstep=4 / cplxblur=20.0 / qblur=0.5 / vbv_maxrate=31250 / vbv_bufsize=31250 / nal_hrd=none / filler=0 / ip_ratio=1.40 / aq=1:1.00
Default                                  : Yes
Forced                                  : No

Audio #1
ID                                      : 2
Format                                  : AAC
Format/Info                              : Advanced Audio Codec
Format profile                          : LC
Codec ID                                : A_AAC
Duration                                : 1h 29mn
Bit rate                                : 120 Kbps
Channel(s)                              : 2 channels
Channel positions                        : Front: L R
Sampling rate                            : 48.0 KHz
Frame rate                              : 46.875 fps (1024 spf)
Compression mode                        : Lossy
Stream size                              : 77.1 MiB (4%)
Title                                    : İngilizce - Filmbol.org
Default                                  : No
Forced                                  : No

Audio #2
ID                                      : 4
Format                                  : AC-3
Format/Info                              : Audio Coding 3
Mode extension                          : CM (complete main)
Format settings, Endianness              : Big
Codec ID                                : A_AC3
Duration                                : 1h 29mn
Bit rate mode                            : Constant
Bit rate                                : 640 Kbps
Channel(s)                              : 6 channels
Channel positions                        : Front: L C R, Side: L R, LFE
Sampling rate                            : 48.0 KHz
Frame rate                              : 31.250 fps (1536 spf)
Compression mode                        : Lossy
Stream size                              : 410 MiB (23%)
Title                                    : Türkçe - Filmbol.org
Language                                : Turkish
Default                                  : Yes
Forced                                  : Yes

Text
ID                                      : 3
Format                                  : UTF-8
Codec ID                                : S_TEXT/UTF8
Codec ID/Info                            : UTF-8 Plain Text
Duration                                : 1h 21mn
Bit rate                                : 52 bps
Count of elements                        : 994
Stream size                              : 31.4 KiB (0%)
Title                                    : Türkçe Altyazı - Filmbol.org
Default                                  : No
Forced                                  : No

Film Detayları


 Çılgın Hırsız 3

 Çılgın Hırsız 3

 Çılgın Hırsız 3


Film Fragmanı


Film Detayları

Uptobox ile indir

1Fichier ile indir

1Fichier'den İndiremiyor musun? Tıklayın!


Mega ile indir

Bunun için üzgünüz ancak, bu linke sadece premium üyeler erişebilir.

Filmbol Cloud



Konu ile Alakalı Benzer Konular
Konular Yazar Yorumlar Okunma Son Yorum
Filmin Yayınlanma Tarihi: 2013
Çılgın Hırsız 2 (Despicable Me 2) - 2013 - TR+ORG - 3D BroserBros 0 230 12-06-2020, Saat: 20:41
Son Yorum: BroserBros
Filmin Yayınlanma Tarihi: 2010
Çılgın Hırsız (Despicable Me) - 2010 - TR+ORG - 3D BroserBros 0 102 11-06-2020, Saat: 20:28
Son Yorum: BroserBros
Filmin Yayınlanma Tarihi: 2017
Coco (Koko) - 2017 - TR+ORG - 3D BroserBros 0 189 21-05-2020, Saat: 14:27
Son Yorum: BroserBros
Filmin Yayınlanma Tarihi: 2017
Arabalar 3 (Cars 3) - 2017 - TR+ORG - 3D BroserBros 0 152 14-05-2020, Saat: 22:53
Son Yorum: BroserBros
Filmin Yayınlanma Tarihi: 2017
Kral Arthur: Kılıç Efsanesi (King Arthur: Legend of the Sword) - 2017 - TR+ORG - 3D BroserBros 0 150 14-05-2020, Saat: 22:41
Son Yorum: BroserBros

Hızlı Menü: