Filmbol Forum Film İndir 3D v Çılgın Hırsız 2 (Despicable Me 2) - 2013 - TR+ORG - 3D
Moderatör Alımları Başladı! Başvuru yapmak için tıklayın.
Filmbol Premium'da %50'e varan indirim fırsatı!
Çılgın Hırsız 2 (Despicable Me 2) - 2013 - TR+ORG - 3D
BroserBros
Çılgın Hırsız 2 (Despicable Me 2) - 2013 - TR+ORG - 3D
0
145
  • Derecelendirme: 0/5 - 0 oy
  • 1
  • 2
  • 3
  • 4
  • 5
Konuyu Okuyanlar:1 Ziyaretçi
Şuan Online!
Filmin Yayınlanma Tarihi: 2013 
Şuan Online!
BroserBros Kurucu Admin
*******
Admin

Vizyon Tarihi


04 Ekim 2013

imdb puanı


7,3 / 370,000

süre


98 dakika

Editör Puanı


7,8 / 10

Video Format: Mkv


Matroska (.MKV)

Ses Kodek: AC3


Audio Coding 3 (AC3)

sürüm


x264 | 3D | BluRay

Boyutlar


2,06 GB



 Çılgın Hırsız 2



Eski süper kötü Gru, suç dolu geçmişini bir kenara bırakır ve evlatlık edindiği kızları Margo, Edith ve Agnes ile birlikte sakin bir hayata adım atar. Gru, kurduğu işiyle ve ailesiyle vaktini geçirirken, bazı gizemli olaylar yaşanmaya başlar. Anti-Villain League isimli son derece gizli bir örgüt, Gru'yu tehlikeli bir olayı araştırması için göreve çağırır ve ona bu görevde Minyonlar'ın yanısıra bu organizasyonun en iyi  ajanı olan Lucy de yardım edecektir. Gru artık iyi adamlarla anlaşma imzalamış ve dünyanın kurtuluşu için mücadele eden birine dönüşmüştür. Lucy ile birlikte kötücül bir süper kötünün peşine düştükleri bu avda, çeşitli suçlularla da mücadele etmek zorunda kalacaklardır.

Çılgın Hırsız 2 (2013) (Despicable Me 2) Filmi Imdb'den 370,000 kişi tarafından oylandı ve 7,3 puan aldı. Bu film için editör puanı 7,8 olarak belirlendi. İyi Seyirler!

Teknik Detaylar

Kod :
General
Unique ID                                : 164717646313564684431389754130614088539 (0x7BEB76F93A8B6582602F18D499DA735B)
Complete name                            : /root/Desktop/2/Çılgın.Hırsız.2.2013.3D.HSBS.BluRay.x264.TR-DTS.ENG.Filmbol.mkv
Format                                  : Matroska
Format version                          : Version 4 / Version 2
File size                                : 2.06 GiB
Duration                                : 1h 37mn
Overall bit rate mode                    : Variable
Overall bit rate                        : 3 009 Kbps
Movie name                              : Çılgın Hırsız 2 - Despicable Me 2 - 2013 | Filmbol.org
Encoded date                            : UTC 2020-06-12 11:46:44
Writing application                      : mkvmerge v8.8.0 ('Wind at my back') 64bit
Writing library                          : libebml v1.3.3 + libmatroska v1.4.4

Video
ID                                      : 1
Format                                  : AVC
Format/Info                              : Advanced Video Codec
Format profile                          : High@L4.1
Format settings, CABAC                  : Yes
Format settings, ReFrames                : 4 frames
Codec ID                                : V_MPEG4/ISO/AVC
Duration                                : 1h 37mn
Bit rate                                : 2 018 Kbps
Width                                    : 1 920 pixels
Height                                  : 1 080 pixels
Display aspect ratio                    : 16:9
Frame rate mode                          : Constant
Frame rate                              : 23.976 (24000/1001) fps
Original frame rate                      : 23.976 (23976/1000) fps
Color space                              : YUV
Chroma subsampling                      : 4:2:0
Bit depth                                : 8 bits
Scan type                                : Progressive
Bits/(Pixel*Frame)                      : 0.041
Stream size                              : 1.38 GiB (67%)
Title                                    : 3D - Filmbol.org
Writing library                          : x264 core 132 r2 76a5c3a
Encoding settings                        : cabac=1 / ref=4 / deblock=1:-1:-1 / analyse=0x3:0x133 / me=umh / subme=9 / psy=1 / psy_rd=1.00:0.15 / mixed_ref=1 / me_range=24 / chroma_me=1 / trellis=2 / 8x8dct=1 / cqm=0 / deadzone=21,11 / fast_pskip=0 / chroma_qp_offset=-3 / threads=36 / lookahead_threads=3 / sliced_threads=0 / nr=0 / decimate=1 / interlaced=0 / bluray_compat=0 / constrained_intra=0 / bframes=3 / b_pyramid=2 / b_adapt=2 / b_bias=0 / direct=3 / weightb=1 / open_gop=0 / weightp=2 / keyint=250 / keyint_min=23 / scenecut=40 / intra_refresh=0 / rc_lookahead=60 / rc=2pass / mbtree=1 / bitrate=2018 / ratetol=1.0 / qcomp=0.60 / qpmin=0 / qpmax=69 / qpstep=4 / cplxblur=20.0 / qblur=0.5 / vbv_maxrate=31250 / vbv_bufsize=31250 / nal_hrd=none / ip_ratio=1.40 / aq=1:1.00
Default                                  : Yes
Forced                                  : No
Color range                              : Limited
Color primaries                          : BT.709
Matrix coefficients                      : BT.709

Audio #1
ID                                      : 2
Format                                  : DTS
Format/Info                              : Digital Theater Systems
Mode                                    : 16
Format settings, Endianness              : Big
Codec ID                                : A_DTS
Duration                                : 1h 37mn
Bit rate mode                            : Constant
Bit rate                                : 768 Kbps
Channel(s)                              : 6 channels
Channel positions                        : Front: L C R, Side: L R, LFE
Sampling rate                            : 48.0 KHz
Frame rate                              : 93.750 fps (512 spf)
Bit depth                                : 24 bits
Compression mode                        : Lossy
Stream size                              : 538 MiB (26%)
Title                                    : DTS - Türkçe - Filmbol.org
Language                                : Turkish
Default                                  : Yes
Forced                                  : Yes

Audio #2
ID                                      : 3
Format                                  : MPEG Audio
Format version                          : Version 1
Format profile                          : Layer 3
Codec ID                                : A_MPEG/L3
Codec ID/Hint                            : MP3
Duration                                : 1h 37mn
Bit rate mode                            : Variable
Bit rate                                : 128 Kbps
Channel(s)                              : 1 channel
Sampling rate                            : 48.0 KHz
Frame rate                              : 41.667 fps (1152 spf)
Compression mode                        : Lossy
Stream size                              : 88.8 MiB (4%)
Title                                    : Türkçe - Filmbol.org
Language                                : Turkish
Default                                  : No
Forced                                  : Yes

Audio #3
ID                                      : 4
Format                                  : AAC
Format/Info                              : Advanced Audio Codec
Format profile                          : LC
Codec ID                                : A_AAC
Duration                                : 1h 37mn
Bit rate                                : 93.6 Kbps
Channel(s)                              : 2 channels
Channel positions                        : Front: L R
Sampling rate                            : 48.0 KHz
Frame rate                              : 46.875 fps (1024 spf)
Compression mode                        : Lossy
Stream size                              : 65.6 MiB (3%)
Title                                    : İngilizce - Filmbol.org
Language                                : English
Default                                  : No
Forced                                  : No

Text
ID                                      : 5
Format                                  : UTF-8
Codec ID                                : S_TEXT/UTF8
Codec ID/Info                            : UTF-8 Plain Text
Duration                                : 1h 36mn
Bit rate                                : 38 bps
Count of elements                        : 916
Stream size                              : 27.1 KiB (0%)
Title                                    : Türkçe Altyazı - Filmbol.org
Language                                : Turkish
Default                                  : Yes
Forced                                  : No

Film Detayları


 Çılgın Hırsız 2

 Çılgın Hırsız 2

 Çılgın Hırsız 2


Film Fragmanı


Film Detayları

Uptobox ile indir

1Fichier ile indir

1Fichier'den İndiremiyor musun? Tıklayın!


Mega ile indir

Bunun için üzgünüz ancak, bu linke sadece premium üyeler erişebilir.

Filmbol Cloud



Konu ile Alakalı Benzer Konular
Konular Yazar Yorumlar Okunma Son Yorum
Filmin Yayınlanma Tarihi: 2013
Karlar Ülkesi (Frozen) - 2013 - TR+ORG - 3D BroserBros 0 114 12-06-2020, Saat: 20:25
Son Yorum: BroserBros
Filmin Yayınlanma Tarihi: 2017
Çılgın Hırsız 3 (Despicable Me 3) - 2017 - TR+ORG - 3D BroserBros 0 98 11-06-2020, Saat: 20:38
Son Yorum: BroserBros
Filmin Yayınlanma Tarihi: 2010
Çılgın Hırsız (Despicable Me) - 2010 - TR+ORG - 3D BroserBros 0 67 11-06-2020, Saat: 20:28
Son Yorum: BroserBros
Filmin Yayınlanma Tarihi: 2013
Yerçekimi (Gravity) - 2013 - TR+ORG - 3D BroserBros 0 157 09-06-2020, Saat: 21:14
Son Yorum: BroserBros
Filmin Yayınlanma Tarihi: 2013
47 Ronin (47 Ronin) - 2013 - TR+ORG - 3D BroserBros 0 133 09-06-2020, Saat: 20:57
Son Yorum: BroserBros

Hızlı Menü: