Filmbol Forum Film İndir BRRip XviD v Christopher Robin (2018) Türkçe Dublaj BRRip XviD İndir
Filmbol'da moderatör olmak ister misiniz? Bizimle iletişime geçmek için tıklayın!
Christopher Robin (2018) Türkçe Dublaj BRRip XviD İndir
BroserBros
Christopher Robin (2018) Türkçe Dublaj BRRip XviD İndir
3
301
  • Derecelendirme: 0/5 - 0 oy
  • 1
  • 2
  • 3
  • 4
  • 5
Konuyu Okuyanlar:1 Ziyaretçi
Şuan Online!
Filmin Yayınlanma Tarihi: 2018 
Şuan Online!
BroserBros Kurucu Admin
*******
Admin

Vizyon Tarihi


03 Ağustos 2018

imdb puanı


7,3 / 61,000

süre


104 dakika

Editör Puanı


7,0

Video Format: Avi


Audio Video Interleave (.AVI)

Ses Kodek: MP3


MPEG-1 Audio Layer III (MP3)

sürüm


h263 | BRRip Xvid

Boyutlar


1,26



Christopher Robin



Film Detayları

Christopher Robin, genç bir adamın yıllar sonra çocukluk arkadaşları ile bir araya gelişini konu ediyor. Artık yetişkin olmuş olan Christopher Robin, 100 Hektar Ormanı’ndaki maceralarından çok uzaklardadır. İş ve aile dengesini korumakta zorlanan Christopher, iş sebebiyle bir aile yolculuğunu kaçırınca sevimli dostu Winnie the Pooh tarafından ziyaret edilir. Sevimli ayının yardıma ihtiyacı vardır. Christopher Robin yeniden ormana dönerek dostlarına yardım ettiğinde, 100 Hektar Ormanı’nın sevimli sakinleri onun da yardıma ihtiyacı olduğunu fark eder. Christopher'ın peşinden gelen tüylü dostları ona hayattan keyif almayı öğretebilecek midir yoksa sadece başına daha çok iş mi açacaktır?

Christopher Robin (2018) Filmi Imdb'den 61,000 kişi tarafından oylandı ve 7,3 puan aldı. Bu film için editör puanı 7,0 olarak belirlendi. İyi Seyirler!


Teknik Detaylar


Kod :
General
Complete name                            : /root/Desktop/4/Christopher.Robin.2018.BRRip.XviD.TR.Filmbol.avi
Format                                   : AVI
Format/Info                              : Audio Video Interleave
File size                                : 1.26 GiB
Duration                                 : 1h 43mn
Overall bit rate                         : 1 738 Kbps

Video
ID                                       : 0
Format                                   : MPEG-4 Visual
Format profile                           : Simple@L5
Format settings, BVOP                    : No
Format settings, QPel                    : No
Format settings, GMC                     : No warppoints
Format settings, Matrix                  : Default (H.263)
Codec ID                                 : XVID
Codec ID/Hint                            : XviD
Duration                                 : 1h 43mn
Bit rate                                 : 1 597 Kbps
Width                                    : 720 pixels
Height                                   : 302 pixels
Display aspect ratio                     : 2.40:1
Frame rate                               : 23.976 fps
Color space                              : YUV
Chroma subsampling                       : 4:2:0
Bit depth                                : 8 bits
Scan type                                : Progressive
Compression mode                         : Lossy
Bits/(Pixel*Frame)                       : 0.306
Stream size                              : 1.16 GiB (92%)
Writing library                          : Lavc58.18.100

Audio
ID                                       : 1
Format                                   : MPEG Audio
Format version                           : Version 1
Format profile                           : Layer 3
Mode                                     : Joint stereo
Mode extension                           : MS Stereo
Codec ID                                 : 55
Codec ID/Hint                            : MP3
Duration                                 : 1h 43mn
Bit rate mode                            : Constant
Bit rate                                 : 128 Kbps
Channel(s)                               : 2 channels
Sampling rate                            : 48.0 KHz
Compression mode                         : Lossy
Stream size                              : 95.1 MiB (7%)
Alignment                                : Aligned on interleaves
Interleave, duration                     : 24 ms (0.58 video frame)

Film Detayları


Christopher Robin

Christopher Robin

Christopher Robin


Film Fragmanı


Film Detayları

Brrip İndir



Uptobox ile indir

1Fichier ile indir

1Fichier'den İndiremiyor musun? Tıklayın!


Mega ile indir

MediaFire ile indir

Şuan Offine!
Şuan Offine!
ercan Uzman Üye
**
Uzman Üye

  • Konular0
  • Mesajlar24
  • Rep puanı 0
tşk...
Şuan Offine!
Şuan Offine!
muratuzun1 Yeni Üye
*
Üye

  • Konular0
  • Mesajlar1
  • Rep puanı 0
mükemmel
Şuan Offine!
Şuan Offine!
Ap0calypse Süper Üye
***
Super Üye

  • Konular0
  • Mesajlar39
  • Rep puanı 0
eline sağlık


Konu ile Alakalı Benzer Konular
Konular Yazar Yorumlar Okunma Son Yorum
Filmin Yayınlanma Tarihi: 2020
Deathstroke Şövalyeler ve Ejderhalar (Deathstroke Knights & Dragons: The Movie) - 2020 - TR - BRRip XviD BroserBros 0 13 10 saat önce
Son Yorum: BroserBros
Filmin Yayınlanma Tarihi: 2019
15 Dakika Savaş (L'intervention) - 2019 - TR - BRRip XviD BroserBros 0 14 11 saat önce
Son Yorum: BroserBros
Filmin Yayınlanma Tarihi: 2020
Sürprizli Gece (The Sleepover) - 2020 - TR - BRRip XviD BroserBros 0 16 , Saat: 16:18
Son Yorum: BroserBros
Filmin Yayınlanma Tarihi: 2020
Feride (Feride) - 2020 - TR - BRRip XviD BroserBros 0 36 22-11-2020, Saat: 17:58
Son Yorum: BroserBros
Filmin Yayınlanma Tarihi: 2019
Gel Babacığına (Come to Daddy) - 2019 - TR - BRRip XviD BroserBros 0 31 22-11-2020, Saat: 17:43
Son Yorum: BroserBros

Hızlı Menü: