Filmbol Forum Film İndir 720P v Christopher Robin (2018) Türkçe Dublaj BLURAY 720P İndir
Filmbol'da moderatör olmak ister misiniz? Bizimle iletişime geçmek için tıklayın!
Christopher Robin (2018) Türkçe Dublaj BLURAY 720P İndir
BroserBros
Christopher Robin (2018) Türkçe Dublaj BLURAY 720P İndir
1
289
  • Derecelendirme: 0/5 - 0 oy
  • 1
  • 2
  • 3
  • 4
  • 5
Konuyu Okuyanlar:1 Ziyaretçi
Şuan Online!
Filmin Yayınlanma Tarihi: 2018 
Şuan Online!
BroserBros Kurucu Admin
*******
Admin

Vizyon Tarihi


03 Ağustos 2018

imdb puanı


7,3 / 61,000

süre


104 dakika

Editör Puanı


7,0

Video Format: Mkv


Matroska (.MKV)

Ses Kodek: AC3


Audio Coding 3 (AC3)

sürüm


x264 | 720P | BLURAY

Boyutlar


1,04



Christopher Robin



Film Detayları

Christopher Robin, genç bir adamın yıllar sonra çocukluk arkadaşları ile bir araya gelişini konu ediyor. Artık yetişkin olmuş olan Christopher Robin, 100 Hektar Ormanı’ndaki maceralarından çok uzaklardadır. İş ve aile dengesini korumakta zorlanan Christopher, iş sebebiyle bir aile yolculuğunu kaçırınca sevimli dostu Winnie the Pooh tarafından ziyaret edilir. Sevimli ayının yardıma ihtiyacı vardır. Christopher Robin yeniden ormana dönerek dostlarına yardım ettiğinde, 100 Hektar Ormanı’nın sevimli sakinleri onun da yardıma ihtiyacı olduğunu fark eder. Christopher'ın peşinden gelen tüylü dostları ona hayattan keyif almayı öğretebilecek midir yoksa sadece başına daha çok iş mi açacaktır?

Christopher Robin (2018) Filmi Imdb'den 61,000 kişi tarafından oylandı ve 7,3 puan aldı. Bu film için editör puanı 7,0 olarak belirlendi. İyi Seyirler!


Teknik Detaylar


Kod :
General
Unique ID                                : 211021881507719812981571833361236528378 (0x9EC156077B60191D5515BAA70BEC8CFA)
Complete name                            : /root/Desktop/4/Christopher.Robin.2018.720p.BluRay.x264.TR.Filmbol.mkv
Format                                   : Matroska
Format version                           : Version 4 / Version 2
File size                                : 1.04 GiB
Duration                                 : 1h 43mn
Overall bit rate                         : 1 436 Kbps
Movie name                               : Christopher Robin (2018) - Filmbol.org
Encoded date                             : UTC 2019-12-29 14:46:50
Writing application                      : mkvmerge v35.0.0 ('All The Love In The World') 64-bit
Writing library                          : libebml v1.3.9 + libmatroska v1.5.2

Video
ID                                       : 1
Format                                   : AVC
Format/Info                              : Advanced Video Codec
Format profile                           : High@L4.1
Format settings, CABAC                   : Yes
Format settings, ReFrames                : 4 frames
Codec ID                                 : V_MPEG4/ISO/AVC
Duration                                 : 1h 43mn
Bit rate                                 : 1 050 Kbps
Width                                    : 1 280 pixels
Height                                   : 534 pixels
Display aspect ratio                     : 2.40:1
Original display aspect ratio            : 2.40:1
Frame rate mode                          : Constant
Frame rate                               : 23.976 (24000/1001) fps
Color space                              : YUV
Chroma subsampling                       : 4:2:0
Bit depth                                : 8 bits
Scan type                                : Progressive
Bits/(Pixel*Frame)                       : 0.064
Stream size                              : 780 MiB (73%)
Title                                    : 720P - Filmbol.org
Writing library                          : x264 core 157
Encoding settings                        : cabac=1 / ref=4 / deblock=1:-1:-1 / analyse=0x3:0x133 / me=umh / subme=9 / psy=1 / psy_rd=1.00:0.15 / mixed_ref=1 / me_range=24 / chroma_me=1 / trellis=2 / 8x8dct=1 / cqm=0 / deadzone=21,11 / fast_pskip=0 / chroma_qp_offset=-3 / threads=17 / lookahead_threads=1 / sliced_threads=0 / nr=0 / decimate=1 / interlaced=0 / bluray_compat=0 / constrained_intra=0 / bframes=3 / b_pyramid=2 / b_adapt=2 / b_bias=0 / direct=3 / weightb=1 / open_gop=0 / weightp=2 / keyint=250 / keyint_min=23 / scenecut=40 / intra_refresh=0 / rc_lookahead=60 / rc=2pass / mbtree=1 / bitrate=1050 / ratetol=1.0 / qcomp=0.60 / qpmin=0 / qpmax=69 / qpstep=4 / cplxblur=20.0 / qblur=0.5 / vbv_maxrate=31250 / vbv_bufsize=31250 / nal_hrd=none / filler=0 / ip_ratio=1.40 / aq=1:1.00
Default                                  : Yes
Forced                                   : No

Audio
ID                                       : 2
Format                                   : AC-3
Format/Info                              : Audio Coding 3
Mode extension                           : CM (complete main)
Format settings, Endianness              : Big
Codec ID                                 : A_AC3
Duration                                 : 1h 43mn
Bit rate mode                            : Constant
Bit rate                                 : 384 Kbps
Channel(s)                               : 6 channels
Channel positions                        : Front: L C R, Side: L R, LFE
Sampling rate                            : 48.0 KHz
Frame rate                               : 31.250 fps (1536 spf)
Compression mode                         : Lossy
Stream size                              : 285 MiB (27%)
Title                                    : Türkçe - Filmbol.org
Language                                 : Turkish
Default                                  : Yes
Forced                                   : No

Text
ID                                       : 3
Format                                   : UTF-8
Codec ID                                 : S_TEXT/UTF8
Codec ID/Info                            : UTF-8 Plain Text
Duration                                 : 1h 37mn
Bit rate                                 : 1 bps
Count of elements                        : 32
Stream size                              : 939 Bytes (0%)
Title                                    : KISIM
Language                                 : Turkish
Default                                  : Yes
Forced                                   : Yes

Film Detayları


Christopher Robin

Christopher Robin

Christopher Robin


Film Fragmanı


Film Detayları

Mini 720P İndir



Uptobox ile indir

1Fichier ile indir

1Fichier'den İndiremiyor musun? Tıklayın!


Mega ile indir

MediaFire ile indir

Şuan Offine!
Şuan Offine!
firatcan140 Süper Üye
***
Super Üye

  • Konular0
  • Mesajlar27
  • Rep puanı 0
qwtqwetqwqtwtwqqtw :angel


Konu ile Alakalı Benzer Konular
Konular Yazar Yorumlar Okunma Son Yorum
Filmin Yayınlanma Tarihi: 2020
Deathstroke Şövalyeler ve Ejderhalar (Deathstroke Knights & Dragons: The Movie) - 2020 - TR+ORG - 720P BroserBros 0 33 23-11-2020, Saat: 18:30
Son Yorum: BroserBros
Filmin Yayınlanma Tarihi: 2019
15 Dakika Savaş (L'intervention) - 2019 - TR+ORG - 720P BroserBros 0 36 23-11-2020, Saat: 17:42
Son Yorum: BroserBros
Filmin Yayınlanma Tarihi: 2020
Sürprizli Gece (The Sleepover) - 2020 - TR+ORG - 720P BroserBros 0 36 23-11-2020, Saat: 16:19
Son Yorum: BroserBros
Filmin Yayınlanma Tarihi: 2020
Feride (Feride) - 2020 - TR+ORG - 720P BroserBros 0 56 22-11-2020, Saat: 20:23
Son Yorum: BroserBros
Filmin Yayınlanma Tarihi: 2019
Gel Babacığına (Come to Daddy) - 2019 - TR+ORG - 720P BroserBros 0 32 22-11-2020, Saat: 17:43
Son Yorum: BroserBros

Hızlı Menü: