Filmbol Forum Film İndir 1080P v Christopher Robin (2018) Türkçe Dublaj BLURAY 1080P İndir
Mega linklerinin şikayet edilmemesi için global erişime kapatıp sadece yorum yapanlara açıyoruz. Bu linkleri gizleme işlemini mecburen yapıyoruz ve yorum yapmanızın siteye değil size faydası vardır. Teşekürler yazmayı çok görüp, Random/Spam mesajlar atarak Mega linklerini açmaya çalışan kullanıcılara önce süresiz ban, devam ederse IP ban atacağız.
Filmbol'da moderatör olmak ister misiniz? Bizimle iletişime geçmek için tıklayın!
Christopher Robin (2018) Türkçe Dublaj BLURAY 1080P İndir
BroserBros
Christopher Robin (2018) Türkçe Dublaj BLURAY 1080P İndir
2
384
  • Derecelendirme: 0/5 - 0 oy
  • 1
  • 2
  • 3
  • 4
  • 5
Konuyu Okuyanlar:1 Ziyaretçi
Şuan Online!
Filmin Yayınlanma Tarihi: 2018 
WWW
Şuan Online!
BroserBros Kurucu Admin
*******
Admin




Video Format: Mkv


Matroska (.MKV)

Ses Kodek: AC3


Audio Coding 3 (AC3)





Christopher Robin



Film Detayları

Christopher Robin, genç bir adamın yıllar sonra çocukluk arkadaşları ile bir araya gelişini konu ediyor. Artık yetişkin olmuş olan Christopher Robin, 100 Hektar Ormanı’ndaki maceralarından çok uzaklardadır. İş ve aile dengesini korumakta zorlanan Christopher, iş sebebiyle bir aile yolculuğunu kaçırınca sevimli dostu Winnie the Pooh tarafından ziyaret edilir. Sevimli ayının yardıma ihtiyacı vardır. Christopher Robin yeniden ormana dönerek dostlarına yardım ettiğinde, 100 Hektar Ormanı’nın sevimli sakinleri onun da yardıma ihtiyacı olduğunu fark eder. Christopher'ın peşinden gelen tüylü dostları ona hayattan keyif almayı öğretebilecek midir yoksa sadece başına daha çok iş mi açacaktır?

Christopher Robin (2018) Filmi Imdb'den 61,000 kişi tarafından oylandı ve 7,3 puan aldı. Bu film için editör puanı 7,0 olarak belirlendi. İyi Seyirler!


Teknik Detaylar


Kod :
General
Unique ID                                : 154711212512318781659699724867400547169 (0x74644BB267A97D4EDCACF8905476BB61)
Complete name                            : /root/Desktop/4/Christopher.Robin.2018.1080p.BluRay.x264.TR.Filmbol.mkv
Format                                   : Matroska
Format version                           : Version 4 / Version 2
File size                                : 1.84 GiB
Duration                                 : 1h 43mn
Overall bit rate                         : 2 535 Kbps
Movie name                               : Christopher.Robin.2018.m720p.BluRay.x264.DUAL.TR.ENG
Encoded date                             : UTC 2019-12-29 14:47:44
Writing application                      : mkvmerge v35.0.0 ('All The Love In The World') 64-bit
Writing library                          : libebml v1.3.9 + libmatroska v1.5.2

Video
ID                                       : 1
Format                                   : AVC
Format/Info                              : Advanced Video Codec
Format profile                           : [email protected]
Format settings, CABAC                   : Yes
Format settings, ReFrames                : 4 frames
Codec ID                                 : V_MPEG4/ISO/AVC
Duration                                 : 1h 43mn
Bit rate                                 : 2 150 Kbps
Width                                    : 1 920 pixels
Height                                   : 800 pixels
Display aspect ratio                     : 2.40:1
Frame rate mode                          : Constant
Frame rate                               : 23.976 (24000/1001) fps
Color space                              : YUV
Chroma subsampling                       : 4:2:0
Bit depth                                : 8 bits
Scan type                                : Progressive
Bits/(Pixel*Frame)                       : 0.058
Stream size                              : 1.56 GiB (85%)
Title                                    : 1080P - Filmbol.org
Writing library                          : x264 core 157
Encoding settings                        : cabac=1 / ref=4 / deblock=1:-1:-1 / analyse=0x3:0x133 / me=umh / subme=9 / psy=1 / psy_rd=1.00:0.15 / mixed_ref=1 / me_range=24 / chroma_me=1 / trellis=2 / 8x8dct=1 / cqm=0 / deadzone=21,11 / fast_pskip=0 / chroma_qp_offset=-3 / threads=18 / lookahead_threads=1 / sliced_threads=0 / nr=0 / decimate=1 / interlaced=0 / bluray_compat=0 / constrained_intra=0 / bframes=3 / b_pyramid=2 / b_adapt=2 / b_bias=0 / direct=3 / weightb=1 / open_gop=0 / weightp=2 / keyint=250 / keyint_min=23 / scenecut=40 / intra_refresh=0 / rc_lookahead=60 / rc=2pass / mbtree=1 / bitrate=2150 / ratetol=1.0 / qcomp=0.60 / qpmin=0 / qpmax=69 / qpstep=4 / cplxblur=20.0 / qblur=0.5 / vbv_maxrate=31250 / vbv_bufsize=31250 / nal_hrd=none / filler=0 / ip_ratio=1.40 / aq=1:1.00
Default                                  : Yes
Forced                                   : No

Audio
ID                                       : 2
Format                                   : AC-3
Format/Info                              : Audio Coding 3
Mode extension                           : CM (complete main)
Format settings, Endianness              : Big
Codec ID                                 : A_AC3
Duration                                 : 1h 43mn
Bit rate mode                            : Constant
Bit rate                                 : 384 Kbps
Channel(s)                               : 6 channels
Channel positions                        : Front: L C R, Side: L R, LFE
Sampling rate                            : 48.0 KHz
Frame rate                               : 31.250 fps (1536 spf)
Compression mode                         : Lossy
Stream size                              : 285 MiB (15%)
Title                                    : Türkçe - Filmbol.org
Language                                 : Turkish
Default                                  : Yes
Forced                                   : No

Text
ID                                       : 3
Format                                   : UTF-8
Codec ID                                 : S_TEXT/UTF8
Codec ID/Info                            : UTF-8 Plain Text
Duration                                 : 1h 37mn
Bit rate                                 : 1 bps
Count of elements                        : 32
Stream size                              : 939 Bytes (0%)
Title                                    : KISIM
Language                                 : Turkish
Default                                  : Yes
Forced                                   : Yes

Film Detayları


Christopher Robin

Christopher Robin

Christopher Robin


Film Fragmanı


Film Detayları

Mini 1080P İndir



Uptobox ile indir

1Fichier ile indir

1Fichier'den İndiremiyor musun? Tıklayın!


Mega linki şuan da gizli. Kullanıma açmak için konuya yorum yapın ve ardından sayfayı yenileyin.

Mega


MediaFire ile indir

Şuan Offine!
Şuan Offine!
homeros Uzman Üye
**
Uzman Üye

  • Konular0
  • Mesajlar8
  • Rep puanı 0
sonra yorum yapacağım.
Şuan Offine!
Şuan Offine!
XSoDia Uzman Üye
**
Uzman Üye

  • Konular0
  • Mesajlar8
  • Rep puanı 0
thx bro


Konu ile Alakalı Benzer Konular
Konular Yazar Yorumlar Okunma Son Yorum
Filmin Yayınlanma Tarihi: 2017
The Babysitter (The Babysitte) - 2017 - TR+ORG - 1080P | tt4225622 TheSteeL 0 14 3 saat önce
Son Yorum: TheSteeL
Filmin Yayınlanma Tarihi: 2020
Bebek Bakıcısı: Katil Kraliçe (The Babysitter: Killer Queen) - 2020 - TR+ORG - 1080P | tt11024272 TheSteeL 0 15 4 saat önce
Son Yorum: TheSteeL
Filmin Yayınlanma Tarihi: 2018
Örümcek Adam: Örümcek Evreninde (Spider-Man) Türkçe Dublaj BLURAY m1080P İndir BroserBros 37 3,067 4 saat önce
Son Yorum: avni12345
Filmin Yayınlanma Tarihi: 2013
Hobbit: Smaug'un Çorak Toprakları Türkçe Dublaj 1080P İndir BroserBros 18 4,279 6 saat önce
Son Yorum: uvenix
Filmin Yayınlanma Tarihi: 2012
Hobbit: Beklenmedik Yolculuk (An Unexpected Journey) Türkçe Dublaj 1080P İndir BroserBros 16 6,228 7 saat önce
Son Yorum: uvenix

Hızlı Menü: