Filmbol Forum Film İndir FHD - FULL HD v Cep Herkülü: Naim Süleymanoğlu (Cep Herkülü: Naim Süleymanoğlu) - 2019 - TR+ORG - FHD - x264
Moderatör Alımları Başladı! Başvuru yapmak için tıklayın.
Filmbol Premium'da %50'e varan indirim fırsatı!
Cep Herkülü: Naim Süleymanoğlu (Cep Herkülü: Naim Süleymanoğlu) - 2019 - TR+ORG - FHD - x264
BroserBros
Cep Herkülü: Naim Süleymanoğlu (Cep Herkülü: Naim Süleymanoğlu) - 2019 - TR+ORG - FHD - x264
0
220
  • Derecelendirme: 0/5 - 0 oy
  • 1
  • 2
  • 3
  • 4
  • 5
Konuyu Okuyanlar:1 Ziyaretçi
Şuan Offine!
Filmin Yayınlanma Tarihi: 2019 
Şuan Offine!
BroserBros Kurucu Admin
*******
Admin

Vizyon Tarihi


22 Kasım 2019

imdb puanı


8,4 / 7,500

süre


141 dakika

Editör Puanı


7,2 / 10

Video Format: Mkv


Matroska (.MKV)

Ses Kodek: AC3


Audio Coding 3 (AC3)

sürüm


x264 | BluRay

Boyutlar


4,97 GB



 Cep Herkülü: Naim Süleymanoğlu



Cep Herkülü Naim Süleymanoğlunun sayısıs madalyaları ve ödülleri filmin tabi ki ana konusu olsa da, Naim'in kariyeri öncesi hayatını da bilmek çok önemli. Filmde Naim'in tüm hayat hikayesi konu ediniyor...

Cep Herkülü: Naim Süleymanoğlu (2019) (Cep Herkülü: Naim Süleymanoğlu) Filmi Imdb'den 7,500 kişi tarafından oylandı ve 8,4 puan aldı. Bu film için editör puanı 7,2 olarak belirlendi. İyi Seyirler!

Teknik Detaylar

Kod :
General
Unique ID                                : 308933637391829765712138401602144257285 (0xE86A744D89C8AE3A5B55C495E3674505)
Complete name                            : /root/Desktop/2/Cep.Herkülü.Naim.Süleymanoğlu.2019.FHD.NF.WEB-DL.x264.Yerli.Filmbol.mkv
Format                                  : Matroska
Format version                          : Version 4 / Version 2
File size                                : 4.97 GiB
Duration                                : 2h 14mn
Overall bit rate mode                    : Variable
Overall bit rate                        : 5 289 Kbps
Encoded date                            : UTC 2020-08-07 07:50:54
Writing application                      : mkvmerge v34.0.0 ('Sight and Seen') 64-bit
Writing library                          : libebml v1.3.7 + libmatroska v1.5.0

Video
ID                                      : 1
Format                                  : AVC
Format/Info                              : Advanced Video Codec
Format profile                          : Main@L4
Format settings, CABAC                  : Yes
Format settings, ReFrames                : 3 frames
Codec ID                                : V_MPEG4/ISO/AVC
Duration                                : 2h 14mn
Bit rate mode                            : Variable
Bit rate                                : 5 110 Kbps
Maximum bit rate                        : 7 665 Kbps
Width                                    : 1 920 pixels
Height                                  : 1 080 pixels
Display aspect ratio                    : 16:9
Frame rate mode                          : Constant
Frame rate                              : 25.000 fps
Color space                              : YUV
Chroma subsampling                      : 4:2:0
Bit depth                                : 8 bits
Scan type                                : Progressive
Bits/(Pixel*Frame)                      : 0.099
Stream size                              : 4.79 GiB (96%)
Writing library                          : x264 core 148 r2722 1b0121b
Encoding settings                        : cabac=1 / ref=3 / deblock=1:0:0 / analyse=0x1:0x111 / me=umh / subme=10 / psy=1 / psy_rd=1.00:0.00 / mixed_ref=1 / me_range=24 / chroma_me=1 / trellis=2 / 8x8dct=0 / cqm=0 / deadzone=21,11 / fast_pskip=1 / chroma_qp_offset=-2 / threads=8 / lookahead_threads=1 / sliced_threads=0 / nr=0 / decimate=1 / interlaced=0 / bluray_compat=0 / stitchable=1 / constrained_intra=0 / bframes=2 / b_pyramid=0 / b_adapt=2 / b_bias=0 / direct=3 / weightb=1 / open_gop=0 / weightp=2 / keyint=250 / keyint_min=25 / scenecut=0 / intra_refresh=0 / rc_lookahead=50 / rc=2pass / mbtree=1 / bitrate=5110 / ratetol=1.0 / qcomp=0.50 / qpmin=6 / qpmax=51 / qpstep=4 / cplxblur=20.0 / qblur=0.5 / vbv_maxrate=7665 / vbv_bufsize=10220 / nal_hrd=vbr / filler=0 / ip_ratio=1.40 / aq=1:1.00
Default                                  : Yes
Forced                                  : No

Audio
ID                                      : 2
Format                                  : AC-3
Format/Info                              : Audio Coding 3
Mode extension                          : CM (complete main)
Format settings, Endianness              : Big
Codec ID                                : A_AC3
Duration                                : 2h 14mn
Bit rate mode                            : Constant
Bit rate                                : 192 Kbps
Channel(s)                              : 2 channels
Channel positions                        : Front: L R
Sampling rate                            : 48.0 KHz
Frame rate                              : 31.250 fps (1536 spf)
Compression mode                        : Lossy
Stream size                              : 185 MiB (4%)
Language                                : Turkish
Default                                  : Yes
Forced                                  : No

Text
ID                                      : 3
Format                                  : UTF-8
Codec ID                                : S_TEXT/UTF8
Codec ID/Info                            : UTF-8 Plain Text
Duration                                : 2h 9mn
Bit rate                                : 11 bps
Count of elements                        : 332
Stream size                              : 10.7 KiB (0%)
Title                                    : FORCED
Language                                : Turkish
Default                                  : Yes
Forced                                  : Yes

Film Detayları


 Cep Herkülü: Naim Süleymanoğlu

 Cep Herkülü: Naim Süleymanoğlu

 Cep Herkülü: Naim Süleymanoğlu


Film Fragmanı


Film Detayları

Uptobox ile indir

1Fichier ile indir

1Fichier'den İndiremiyor musun? Tıklayın!


Mega ile indir

Bunun için üzgünüz ancak, bu linke sadece premium üyeler erişebilir.

Filmbol Cloud



Konu ile Alakalı Benzer Konular
Konular Yazar Yorumlar Okunma Son Yorum
Filmin Yayınlanma Tarihi: 2020
The Hunt (Av) - 2020 - TR+ORG - FHD - x264 BroserBros 0 139 18-09-2020, Saat: 19:29
Son Yorum: BroserBros
Filmin Yayınlanma Tarihi: 2018
Gözbebeğim (Pupille) - 2018 - TR+ORG - FHD - x264 BroserBros 0 144 18-09-2020, Saat: 13:03
Son Yorum: BroserBros
Filmin Yayınlanma Tarihi: 2019
Umut Vadisi (Hope Gap) - 2019 - TR+ORG - FHD - x264 BroserBros 0 138 18-09-2020, Saat: 12:52
Son Yorum: BroserBros
Filmin Yayınlanma Tarihi: 2020
Berlin, Berlin (Berlin, Berlin) - 2020 - TR+ORG - FHD - x264 BroserBros 0 89 15-09-2020, Saat: 18:18
Son Yorum: BroserBros
Filmin Yayınlanma Tarihi: 2020
Malibu Rescue: Yeni Dalga (Malibu Rescue: The Next Wave) - 2020 - TR+ORG - FHD - x264 BroserBros 0 132 13-09-2020, Saat: 20:55
Son Yorum: BroserBros

Hızlı Menü: