Hoşgeldin, Ziyaretçi: Giriş Yap Üye Ol


stats
Adblock'u kapattıysanız tıklayın.
Hoşgeldiniz!
Filmbol'u tercih ettiğiniz için teşekkürler, ancak ablock kullanarak devam edemezsiniz.
Merak etmeyin. Heryerden ardı ardına çıkan reklamlar görmeyeceksiniz :)

Sadece site içi 1 reklam göreceksin ve bu site gezintini etkilemeyecek.
Konuyu Oyla:
  • Derecelendirme: 0/5 - 0 oy
  • 1
  • 2
  • 3
  • 4
  • 5
Title: Captain Marvel Türkçe Dublaj Brrip-Xvid İndir
Gösterim Stili
#1
Filmin Yayınlanma Tarihi: 2019 

indirme türü


Bulut + Premium

vizyon tarihi


08 Mart 2019

Boyutlar


1,48

diller


[TR]

altyazilar


Kısım [Eklenebilir]

Video Format: Avi


Audio Video Interleave (.AVI)

Video Detay


MPEG-4, 1590 Kbps, 1,37 GB

imdb puanı


7,0 / 10,0 / 320,000

süre


123 dakika

Ses Kodek: MP3


MPEG-1 Audio Layer III (MP3)

Ses Detay


128 Kbps, 2 Kanal, 113Mb

Editör Puanı


8,2

Genislik Yukseklik


720-302

sürüm


h263 | Brrip-Xvid



Film Detayları

Carol Danvers, dünya iki yabancı ırk arasındaki galaktik bir savaş arasında kalınca, Dünyanın en güçlü süper kahramanlarından birisi haline gelir ve dünyayı korumak için elinden geleni yapacaktır.


Teknik Detaylar

Kod:
General
Complete name                            : Captain.Marvel.2019.BRRip.XviD.TR.Filmbol_edit.avi
Format                                   : AVI
Format/Info                              : Audio Video Interleave
File size                                : 1.50 GiB
Duration                                 : 2h 3mn
Overall bit rate                         : 1 731 Kbps

Video
ID                                       : 0
Format                                   : MPEG-4 Visual
Format profile                           : Simple@L5
Format settings, BVOP                    : No
Format settings, QPel                    : No
Format settings, GMC                     : No warppoints
Format settings, Matrix                  : Default (H.263)
Codec ID                                 : XVID
Codec ID/Hint                            : XviD
Duration                                 : 2h 3mn
Bit rate                                 : 1 590 Kbps
Width                                    : 720 pixels
Height                                   : 302 pixels
Display aspect ratio                     : 2.40:1
Frame rate                               : 23.976 fps
Color space                              : YUV
Chroma subsampling                       : 4:2:0
Bit depth                                : 8 bits
Scan type                                : Progressive
Compression mode                         : Lossy
Bits/(Pixel*Frame)                       : 0.305
Stream size                              : 1.37 GiB (92%)
Writing library                          : Lavc58.35.100

Audio
ID                                       : 1
Format                                   : MPEG Audio
Format version                           : Version 1
Format profile                           : Layer 3
Mode                                     : Joint stereo
Mode extension                           : MS Stereo
Codec ID                                 : 55
Codec ID/Hint                            : MP3
Duration                                 : 2h 3mn
Bit rate mode                            : Constant
Bit rate                                 : 128 Kbps
Channel(s)                               : 2 channels
Sampling rate                            : 48.0 KHz
Compression mode                         : Lossy
Stream size                              : 113 MiB (7%)
Alignment                                : Aligned on interleaves
Interleave, duration                     : 24 ms (0.58 video frame)



Film Detayları



Captain Marvel

Captain Marvel

Captain Marvel

Captain Marvel

Captain Marvel



Film Fragmanı


Film Detayları

Brrip İndir


Turbobit İle İndir

Uptobox ile indir

Mega linki şuan da gizli. Kullanıma açmak için konuya yorum yapın ve ardından sayfayı yenileyin. Ayrıca bu linki açtığınızda reklamsız olarak erişebileceğinizi unutmayın.

Mega


Cloud Ru ile indir

Dosya Co ile indir


Dosya Upload ile indir

MegaUp ile indir

 
Cevapla
#2
teşekkürler ses görüntü iyi
 
Cevapla
#3
teşekkürler
 
Cevapla
  


Konu ile Alakalı Benzer Konular
Konular Yazar Yorumlar Okunma Son Yorum
Filmin Yayınlanma Tarihi: 2018 Yenilmezler: Sonsuzluk Savaşı (2018) Türkçe Dublaj Brrip-Xvid İndir BroserBros 1 2,904 12-11-2019, Saat: 14:01
Son Yorum: Rgun
Filmin Yayınlanma Tarihi: 2019 Alita: Savaş Meleği (Alita: Battle Angel) Türkçe Dublaj Brrip Xvid İndir BroserBros 3 377 11-11-2019, Saat: 22:26
Son Yorum: efsanem
Filmin Yayınlanma Tarihi: 2018 Bumblebee Türkçe Dublaj Brrip Xvid İndir BroserBros 1 171 11-11-2019, Saat: 22:22
Son Yorum: efsanem
Filmin Yayınlanma Tarihi: 2016 Kurtuluş Günü 2: Yeni Tehdit 2016 Türkçe Dublaj Brrip-Xvid İndir BroserBros 5 9,893 11-11-2019, Saat: 10:50
Son Yorum: erdoganozer1
Filmin Yayınlanma Tarihi: 2019 Avengers: Endgame (2019) Türkçe Dublaj Brrip Xvid İndir BroserBros 15 606 10-11-2019, Saat: 17:57
Son Yorum: efsanem

Hızlı Menü:


Browsing: 1 Ziyaretçi