Hoşgeldin, Ziyaretçi: Giriş Yap Üye Ol


stats
Adblock'u kapattıysanız tıklayın.
Hoşgeldiniz!
Filmbol'u tercih ettiğiniz için teşekkürler, ancak ablock kullanarak devam edemezsiniz.
Merak etmeyin. Heryerden ardı ardına çıkan reklamlar görmeyeceksiniz :)

Sadece site içi 1 reklam göreceksin ve bu site gezintini etkilemeyecek.
Konuyu Oyla:
  • Derecelendirme: 0/5 - 0 oy
  • 1
  • 2
  • 3
  • 4
  • 5
Title: Cadılar Bayramı (Hallowen) Türkçe Dublaj Brrip Xvid İndir
Gösterim Stili
#1
Filmin Yayınlanma Tarihi: 2018 

indirme türü


Bulut + Premium

vizyon tarihi


26 Ekim 2018

Boyutlar


1,13

diller


[TR]

altyazilar


KISIM [Eklenebilir]

Video Format: Avi


Audio Video Interleave (.AVI)

Video Detay


MPEG-4, 1384Kbps, 1,02GB

imdb puanı


6,6 / 10,0 / 102,000

süre


106 dakika

Ses Kodek: MP3


MPEG-1 Audio Layer III (MP3)

Ses Detay


128 Kbps, 2 Kanal, 96Mb

Editör Puanı


6,9

Genislik Yukseklik


720-302

sürüm


h263 | Brrip Xvid





Cadilar Bayrami


Film Detayları

1978 yılı Cadılar Bayramı’nda dört masum genci öldüren Michael Myers ile ilgili araştırma yapan bir grup araştırmacı Myers’ı hapishanede ziyaret ederler. Bu sırada herkes yaklaşmakta olan Cadılar Bayramı hazırlıkları içerisindedir. Cadılar Bayramı’nın gelmesini bekleyen biri daha vardır; Laurie Strode. Laurie, 40 yıl önce bir Cadılar Bayramı gecesi kendisini öldürmeye çalışan maskeli katil Michael Myers ile yüzleşmek istemektedir. Laurie, Myers’la yüzleşebilmek ve intikamını alabilmek için onun hapishaneden kaçmasını beklemektedir ve hayali gerçekleşir. Myers’ın da içinde bulunduğu hapishane nakil aracı kaza yapar ve Michael Myers kaçmayı başarır. Maskeli katilin kendisinin peşine düşeceğini bilen Laurie büyük karşılaşma için tüm hazırlıklarını yapmıştır.

Cadılar Bayramı (Hallowen) Filmi Imdb'den 102,000 kişi tarafından oylandı ve 6,6 puan aldı. Bu film için editör puanı 6,9 olarak belirlendi. İyi Seyirler!


Teknik Detaylar


Kod:
General
Complete name                            : /Cadılar.Bayramı.2018.BRRip.XviD.TR.Filmbol.avi
Format                                   : AVI
Format/Info                              : Audio Video Interleave
File size                                : 1.13 GiB
Duration                                 : 1h 45mn
Overall bit rate                         : 1 525 Kbps

Video
ID                                       : 0
Format                                   : MPEG-4 Visual
Format profile                           : Simple@L5
Format settings, BVOP                    : No
Format settings, QPel                    : No
Format settings, GMC                     : No warppoints
Format settings, Matrix                  : Default (H.263)
Codec ID                                 : XVID
Codec ID/Hint                            : XviD
Duration                                 : 1h 45mn
Bit rate                                 : 1 384 Kbps
Width                                    : 720 pixels
Height                                   : 302 pixels
Display aspect ratio                     : 2.40:1
Frame rate                               : 23.976 fps
Color space                              : YUV
Chroma subsampling                       : 4:2:0
Bit depth                                : 8 bits
Scan type                                : Progressive
Compression mode                         : Lossy
Bits/(Pixel*Frame)                       : 0.265
Stream size                              : 1.02 GiB (91%)
Writing library                          : Lavc58.35.100

Audio
ID                                       : 1
Format                                   : MPEG Audio
Format version                           : Version 1
Format profile                           : Layer 3
Mode                                     : Joint stereo
Mode extension                           : MS Stereo
Codec ID                                 : 55
Codec ID/Hint                            : MP3
Duration                                 : 1h 45mn
Bit rate mode                            : Constant
Bit rate                                 : 128 Kbps
Channel(s)                               : 2 channels
Sampling rate                            : 48.0 KHz
Compression mode                         : Lossy
Stream size                              : 96.9 MiB (8%)
Alignment                                : Aligned on interleaves
Interleave, duration                     : 24 ms (0.58 video frame)

Film Detayları


Cadilar Bayrami

Cadilar Bayrami

Cadilar Bayrami


Film Fragmanı


Film Detayları

Brrip İndir


Uptobox ile indir

LetsUpload ile indir

Dosya Upload ile indir

Mega linki şuan da gizli. Kullanıma açmak için konuya yorum yapın ve ardından sayfayı yenileyin. Ayrıca bu linki açtığınızda reklamsız olarak erişebileceğinizi unutmayın.

Mega


Mediafire linki şuan da gizli. Kullanıma açmak için konuya yorum yapın ve ardından sayfayı yenileyin. Ayrıca bu linki açtığınızda reklamsız olarak erişebileceğinizi unutmayın.

Mediafire

 
Cevapla
#2
teşekkürler..
 
Cevapla
  


Konu ile Alakalı Benzer Konular
Konular Yazar Yorumlar Okunma Son Yorum
Filmin Yayınlanma Tarihi: 2019 Eli (2019) Türkçe Dublaj Brrip Xvid İndir BroserBros 1 42 17-11-2019, Saat: 01:40
Son Yorum: ufukus
Filmin Yayınlanma Tarihi: 2019 Ölüm Günün Kutlu Olsun 2 (Happy Death Day 2) Türkçe Dublaj Brrip Xvid İndir BroserBros 1 157 22-10-2019, Saat: 12:47
Son Yorum: komador06
Filmin Yayınlanma Tarihi: 2018 Mandy (2018) Türkçe Dublaj Brrip Xvid İndir BroserBros 2 149 22-10-2019, Saat: 01:29
Son Yorum: BorisZaharyas
Filmin Yayınlanma Tarihi: 2019 The Silence (2019) Türkçe Dublaj Brrip Xvid İndir BroserBros 1 174 20-10-2019, Saat: 17:28
Son Yorum: komador06
Filmin Yayınlanma Tarihi: 2018 Climax (2018) Türkçe Dublaj Brrip Xvid İndir BroserBros 1 170 20-10-2019, Saat: 16:28
Son Yorum: komador06

Hızlı Menü:


Browsing: 5 Ziyaretçi