Filmbol Forum Film İndir 720P v Cadılar Bayramı (Hallowen) Türkçe Dublaj BLURAY m720P İndir
Filmbol'da moderatör olmak ister misiniz? Bizimle iletişime geçmek için tıklayın!
Cadılar Bayramı (Hallowen) Türkçe Dublaj BLURAY m720P İndir
BroserBros
Cadılar Bayramı (Hallowen) Türkçe Dublaj BLURAY m720P İndir
2
419
  • Derecelendirme: 0/5 - 0 oy
  • 1
  • 2
  • 3
  • 4
  • 5
Konuyu Okuyanlar:1 Ziyaretçi
Şuan Online!
Filmin Yayınlanma Tarihi: 2018 
Şuan Online!
BroserBros Kurucu Admin
*******
Admin

indirme türü


Bulut + Premium

Vizyon Tarihi


26 Ekim 2018

Boyutlar


0,94

diller


[TR]

altyazilar


KISIM [Eklenebilir]

Video Format: Mkv


Matroska (.MKV)

Video Detay


MPEG-4, 1050Kbps, 0,79GB

imdb puanı


6,6 / 10,0 / 102,000

süre


106 dakika

Ses Kodek: AC3


Audio Coding 3 (AC3)

Ses Detay


192 Kbps, 2 Kanal, 145Mb

Editör Puanı


6,9

Genislik Yukseklik


1280-534

sürüm


x264 | 720P




Cadilar Bayrami


Film Detayları

1978 yılı Cadılar Bayramı’nda dört masum genci öldüren Michael Myers ile ilgili araştırma yapan bir grup araştırmacı Myers’ı hapishanede ziyaret ederler. Bu sırada herkes yaklaşmakta olan Cadılar Bayramı hazırlıkları içerisindedir. Cadılar Bayramı’nın gelmesini bekleyen biri daha vardır; Laurie Strode. Laurie, 40 yıl önce bir Cadılar Bayramı gecesi kendisini öldürmeye çalışan maskeli katil Michael Myers ile yüzleşmek istemektedir. Laurie, Myers’la yüzleşebilmek ve intikamını alabilmek için onun hapishaneden kaçmasını beklemektedir ve hayali gerçekleşir. Myers’ın da içinde bulunduğu hapishane nakil aracı kaza yapar ve Michael Myers kaçmayı başarır. Maskeli katilin kendisinin peşine düşeceğini bilen Laurie büyük karşılaşma için tüm hazırlıklarını yapmıştır.

Cadılar Bayramı (Hallowen) Filmi Imdb'den 102,000 kişi tarafından oylandı ve 6,6 puan aldı. Bu film için editör puanı 6,9 olarak belirlendi. İyi Seyirler!


Teknik Detaylar


Kod :
General
Complete name                            : Cadılar.Bayramı.2018.m720p.BLURAY.x264.TR.Filmbol.mkv
Format                                   : Matroska
Format version                           : Version 4 / Version 2
File size                                : 941 MiB
Duration                                 : 1h 45mn
Overall bit rate                         : 1 244 Kbps
Movie name                               : Cadılar Bayramı (2018) - Filmbol.org
Encoded date                             : UTC 2019-11-06 22:26:08
Writing application                      : mkvmerge v35.0.0 ('All The Love In The World') 64-bit
Writing library                          : libebml v1.3.9 + libmatroska v1.5.2

Video
ID                                       : 1
Format                                   : AVC
Format/Info                              : Advanced Video Codec
Format profile                           : High@L4.1
Format settings, CABAC                   : Yes
Format settings, ReFrames                : 4 frames
Codec ID                                 : V_MPEG4/ISO/AVC
Duration                                 : 1h 45mn
Bit rate                                 : 1 050 Kbps
Width                                    : 1 280 pixels
Height                                   : 534 pixels
Display aspect ratio                     : 2.40:1
Original display aspect ratio            : 2.40:1
Frame rate mode                          : Constant
Frame rate                               : 23.976 (24000/1001) fps
Color space                              : YUV
Chroma subsampling                       : 4:2:0
Bit depth                                : 8 bits
Scan type                                : Progressive
Bits/(Pixel*Frame)                       : 0.064
Stream size                              : 795 MiB (84%)
Title                                    : 720P - Filmbol.org
Writing library                          : x264 core 157
Default                                  : Yes
Forced                                   : No

Audio
ID                                       : 2
Format                                   : AC-3
Format/Info                              : Audio Coding 3
Mode extension                           : CM (complete main)
Format settings, Endianness              : Big
Codec ID                                 : A_AC3
Duration                                 : 1h 45mn
Bit rate mode                            : Constant
Bit rate                                 : 192 Kbps
Channel(s)                               : 2 channels
Channel positions                        : Front: L R
Sampling rate                            : 48.0 KHz
Frame rate                               : 31.250 fps (1536 spf)
Compression mode                         : Lossy
Stream size                              : 145 MiB (15%)
Title                                    : Türkçe - Filmbol.org
Language                                 : Turkish
Default                                  : Yes
Forced                                   : No

Film Detayları


Cadilar Bayrami

Cadilar Bayrami

Cadilar Bayrami


Film Fragmanı


Film Detayları

Mini 720P İndir


Uptobox ile indir

LetsUpload ile indir

jqaR

Mega ile indir

MediaFire ile indir

Şuan Offine!
Şuan Offine!
omfaru6161 Yeni Üye
*
Üye

  • Konular0
  • Mesajlar1
  • Rep puanı 0
Hshshe Wink Rolleyes
Şuan Online!
Şuan Online!
gonenoya Süper Üye
***
Super Üye

  • Konular0
  • Mesajlar42
  • Rep puanı 0
fdsfwegfrgrg


Konu ile Alakalı Benzer Konular
Konular Yazar Yorumlar Okunma Son Yorum
Filmin Yayınlanma Tarihi: 2004
Harry Potter ve Azbakan Tutsağı (Prisoner of Azkaban) Türkçe Dublaj m720P İndir BroserBros 16 1,604 17-08-2020, Saat: 22:52
Son Yorum: xzxxx
Filmin Yayınlanma Tarihi: 2016
Lanetli Mesaj (Friend Request) Türkçe Dublaj m720P İndir BroserBros 2 1,557 29-07-2020, Saat: 14:11
Son Yorum: gurcan.d
Filmin Yayınlanma Tarihi: 2019
Shazam! 6 Güç Türkçe Dublaj Bluray m720P İndir BroserBros 3 819 18-05-2020, Saat: 19:03
Son Yorum: problemboy1
Filmin Yayınlanma Tarihi: 2019
The Silence (2019) Türkçe Dublaj BLURAY m720P İndir BroserBros 5 718 12-05-2020, Saat: 21:37
Son Yorum: Nizyy
Filmin Yayınlanma Tarihi: 2019
Godzilla 2: Canavarlar Kralı (King of the Monsters) Türkçe Dublaj BLURAY m720P İndir BroserBros 12 1,316 03-05-2020, Saat: 17:05
Son Yorum: jisiso5307

Hızlı Menü: