Filmbol Forum Film İndir BRRip XviD v Buz Devri (Ice Age) Türkçe Dublaj BRRip XviD indir
Mega linklerinin şikayet edilmemesi için global erişime kapatıp sadece yorum yapanlara açıyoruz. Bu linkleri gizleme işlemini mecburen yapıyoruz ve yorum yapmanızın siteye değil size faydası vardır. Teşekürler yazmayı çok görüp, Random/Spam mesajlar atarak Mega linklerini açmaya çalışan kullanıcılara önce süresiz ban, devam ederse IP ban atacağız.
Filmbol'da moderatör olmak ister misiniz? Bizimle iletişime geçmek için tıklayın!
Buz Devri (Ice Age) Türkçe Dublaj BRRip XviD indir
BroserBros
Buz Devri (Ice Age) Türkçe Dublaj BRRip XviD indir
0
285
  • Derecelendirme: 0/5 - 0 oy
  • 1
  • 2
  • 3
  • 4
  • 5
Konuyu Okuyanlar:1 Ziyaretçi
Şuan Online!
Filmin Yayınlanma Tarihi: 2002 
WWW
Şuan Online!
BroserBros Kurucu Admin
*******
Admin








 Buz Devri



Bir mamut, garip bir mistik hayvan ve bir kaplan bir araya gelir. Etcil olan bir kaplan ile otcul olan bir mamut'un nasıl bir araya geldiğini merak edebilirsiniz, bu merakınızda da haklısınız. Bu animasyon filmini izledikten sonra bu olay çokta garibinize gitmeyecektir. Bu çok ilginç birleşmenin sebebi ise, bir bebeği anne ve babasına ulaştırma çabasıdır. Bence Buz Devri, sadece çocuklar için üretilmiş bir animasyon filmi olarak kabul edilemez. İster 7 yaşında ister 70 yaşında olun, Buz Devri filmi sizi tatmin edecektir.

Buz Devri (2002) (Ice Age) Filmi Imdb'den 420,000 kişi tarafından oylandı ve 7,5 puan aldı. Bu film için editör puanı 8,0 olarak belirlendi. İyi Seyirler!

Teknik Detaylar

Kod :
General
Complete name                            : /root/Desktop/2/Buz.Devri.2002.BRRip.XviD.TR.Filmbol.avi
Format                                   : AVI
Format/Info                              : Audio Video Interleave
File size                                : 698 MiB
Duration                                 : 1h 21mn
Overall bit rate                         : 1 202 Kbps
Writing application                      : VirtualDubMod 1.5.10.1 (build 2366/release)
Writing library                          : VirtualDubMod build 2366/release

Video
ID                                       : 0
Format                                   : MPEG-4 Visual
Format profile                           : Advanced [email protected]
Format settings, BVOP                    : 2
Format settings, QPel                    : No
Format settings, GMC                     : No warppoints
Format settings, Matrix                  : Custom
Codec ID                                 : XVID
Codec ID/Hint                            : XviD
Duration                                 : 1h 21mn
Bit rate                                 : 1 065 Kbps
Width                                    : 640 pixels
Height                                   : 352 pixels
Display aspect ratio                     : 16:9
Frame rate                               : 23.976 (24000/1001) fps
Color space                              : YUV
Chroma subsampling                       : 4:2:0
Bit depth                                : 8 bits
Scan type                                : Progressive
Compression mode                         : Lossy
Bits/(Pixel*Frame)                       : 0.197
Stream size                              : 618 MiB (89%)
Writing library                          : XviD 1.2.1 (UTC 2008-12-04)

Audio
ID                                       : 1
Format                                   : MPEG Audio
Format version                           : Version 1
Format profile                           : Layer 3
Mode                                     : Joint stereo
Mode extension                           : MS Stereo
Codec ID                                 : 55
Codec ID/Hint                            : MP3
Duration                                 : 1h 21mn
Bit rate mode                            : Constant
Bit rate                                 : 128 Kbps
Channel(s)                               : 2 channels
Sampling rate                            : 48.0 KHz
Compression mode                         : Lossy
Stream size                              : 74.3 MiB (11%)
Alignment                                : Aligned on interleaves
Interleave, duration                     : 42 ms (1.00 video frame)
Interleave, preload duration             : 504 ms
Writing library                          : LAME3.98r
Encoding settings                        : -m j -V 4 -q 2 -lowpass 17 -b 128

Film Detayları


 Buz Devri

 Buz Devri

 Buz Devri


Film Fragmanı


Film Detayları


Uptobox ile indir

1Fichier ile indir

1Fichier'den İndiremiyor musun? Tıklayın!


Mega linki şuan da gizli. Kullanıma açmak için konuya yorum yapın ve ardından sayfayı yenileyin.

Mega


MediaFire ile indir



Konu ile Alakalı Benzer Konular
Konular Yazar Yorumlar Okunma Son Yorum
  Her Zaman Şeytan (The Devil All the Time) - 2020 - TR - BRRip XviD | tt7395114 TheSteeL 0 23 10 saat önce
Son Yorum: TheSteeL
Filmin Yayınlanma Tarihi: 2020
Baba Aranıyor (Se busca papá) - 2020 - TR - BRRip XviD | tt12721188 TheSteeL 0 20 11 saat önce
Son Yorum: TheSteeL
Filmin Yayınlanma Tarihi: 1999
Yeşil Yol (The Green Mile) - 1999 - TR - BRRip XviD | tt0120689 BroserBros 2 246 , Saat: 15:54
Son Yorum: Furkan61
Filmin Yayınlanma Tarihi: 2019
Beyaz Kentin Sessizliği (El silencio de la ciudad blanca) - 2019 - TR - BRRip XviD | tt8393332 BroserBros 1 245 , Saat: 15:38
Son Yorum: BroserBros
Filmin Yayınlanma Tarihi: 2014
Frankenstein: Ölümsüzlerin Savaşı (I, Frankenstein) - 2014 - TR - BRRip XviD | tt1418377 BroserBros 2 296 , Saat: 15:29
Son Yorum: BroserBros

Hızlı Menü: