Filmbol Forum Film İndir 720P v Buz Devri (Ice Age) Türkçe Dublaj BLURAY 720P indir
Mega linklerinin şikayet edilmemesi için global erişime kapatıp sadece yorum yapanlara açıyoruz. Bu linkleri gizleme işlemini mecburen yapıyoruz ve yorum yapmanızın siteye değil size faydası vardır. Teşekürler yazmayı çok görüp, Random/Spam mesajlar atarak Mega linklerini açmaya çalışan kullanıcılara önce süresiz ban, devam ederse IP ban atacağız.
Filmbol'da moderatör olmak ister misiniz? Bizimle iletişime geçmek için tıklayın!
Buz Devri (Ice Age) Türkçe Dublaj BLURAY 720P indir
BroserBros
Buz Devri (Ice Age) Türkçe Dublaj BLURAY 720P indir
1
326
  • Derecelendirme: 0/5 - 0 oy
  • 1
  • 2
  • 3
  • 4
  • 5
Konuyu Okuyanlar:1 Ziyaretçi
Şuan Online!
Filmin Yayınlanma Tarihi: 2002 
WWW
Şuan Online!
BroserBros Kurucu Admin
*******
Admin








 Buz Devri



Bir mamut, garip bir mistik hayvan ve bir kaplan bir araya gelir. Etcil olan bir kaplan ile otcul olan bir mamut'un nasıl bir araya geldiğini merak edebilirsiniz, bu merakınızda da haklısınız. Bu animasyon filmini izledikten sonra bu olay çokta garibinize gitmeyecektir. Bu çok ilginç birleşmenin sebebi ise, bir bebeği anne ve babasına ulaştırma çabasıdır. Bence Buz Devri, sadece çocuklar için üretilmiş bir animasyon filmi olarak kabul edilemez. İster 7 yaşında ister 70 yaşında olun, Buz Devri filmi sizi tatmin edecektir.

Buz Devri (2002) (Ice Age) Filmi Imdb'den 420,000 kişi tarafından oylandı ve 7,5 puan aldı. Bu film için editör puanı 8,0 olarak belirlendi. İyi Seyirler!

Teknik Detaylar

Kod :
General
Unique ID                                : 237551349101283811956109602049946442542 (0xB2B6B9C49DBE1056380DDAA0F7065B2E)
Complete name                            : /root/Desktop/2/Buz.Devri.2002.720p.BluRay.x264.TR.Filmbol.mkv
Format                                   : Matroska
Format version                           : Version 4 / Version 2
File size                                : 703 MiB
Duration                                 : 1h 21mn
Overall bit rate                         : 1 213 Kbps
Movie name                               : Buz Devri (2002) - Filmbol.org
Encoded date                             : UTC 2020-02-16 11:44:11
Writing application                      : mkvmerge v35.0.0 ('All The Love In The World') 64-bit
Writing library                          : libebml v1.3.9 + libmatroska v1.5.2

Video
ID                                       : 1
Format                                   : AVC
Format/Info                              : Advanced Video Codec
Format profile                           : [email protected]
Format settings, CABAC                   : Yes
Format settings, ReFrames                : 6 frames
Codec ID                                 : V_MPEG4/ISO/AVC
Duration                                 : 1h 21mn
Bit rate                                 : 764 Kbps
Width                                    : 1 280 pixels
Height                                   : 688 pixels
Display aspect ratio                     : 1.85:1
Frame rate mode                          : Constant
Frame rate                               : 23.976 (24000/1001) fps
Color space                              : YUV
Chroma subsampling                       : 4:2:0
Bit depth                                : 8 bits
Scan type                                : Progressive
Bits/(Pixel*Frame)                       : 0.036
Stream size                              : 443 MiB (63%)
Title                                    : 720P - Filmbol.org
Writing library                          : x264 core 120 r2164 da19765
Encoding settings                        : cabac=1 / ref=6 / deblock=1:-2:-1 / analyse=0x3:0x133 / me=umh / subme=9 / psy=1 / psy_rd=1.00:0.00 / mixed_ref=1 / me_range=16 / chroma_me=1 / trellis=2 / 8x8dct=1 / cqm=0 / deadzone=21,11 / fast_pskip=1 / chroma_qp_offset=-2 / threads=3 / sliced_threads=0 / nr=0 / decimate=1 / interlaced=0 / bluray_compat=0 / constrained_intra=0 / bframes=3 / b_pyramid=2 / b_adapt=2 / b_bias=0 / direct=3 / weightb=1 / open_gop=0 / weightp=2 / keyint=240 / keyint_min=23 / scenecut=40 / intra_refresh=0 / rc_lookahead=60 / rc=2pass / mbtree=1 / bitrate=764 / ratetol=1.0 / qcomp=0.60 / qpmin=10 / qpmax=51 / qpstep=4 / cplxblur=20.0 / qblur=0.5 / ip_ratio=1.40 / aq=1:1.00
Default                                  : Yes
Forced                                   : No

Audio
ID                                       : 2
Format                                   : AC-3
Format/Info                              : Audio Coding 3
Mode extension                           : CM (complete main)
Format settings, Endianness              : Big
Codec ID                                 : A_AC3
Duration                                 : 1h 21mn
Bit rate mode                            : Constant
Bit rate                                 : 448 Kbps
Channel(s)                               : 6 channels
Channel positions                        : Front: L C R, Side: L R, LFE
Sampling rate                            : 48.0 KHz
Frame rate                               : 31.250 fps (1536 spf)
Compression mode                         : Lossy
Stream size                              : 260 MiB (37%)
Title                                    : Türkçe - Filmbol.org
Default                                  : Yes
Forced                                   : No

Film Detayları


 Buz Devri

 Buz Devri

 Buz Devri


Film Fragmanı


Film Detayları

Uptobox ile indir

1Fichier ile indir

1Fichier'den İndiremiyor musun? Tıklayın!


Mega linki şuan da gizli. Kullanıma açmak için konuya yorum yapın ve ardından sayfayı yenileyin.

Mega


MediaFire ile indir

Şuan Offine!
Şuan Offine!
berkemir Uzman Üye
**
Uzman Üye

  • Konular0
  • Mesajlar12
  • Rep puanı 0
çok teşekkürler


Konu ile Alakalı Benzer Konular
Konular Yazar Yorumlar Okunma Son Yorum
Filmin Yayınlanma Tarihi: 2020
Her Zaman Şeytan (The Devil All the Time) - 2020 - TR+ORG - 720P | tt7395114 TheSteeL 0 32 , Saat: 21:36
Son Yorum: TheSteeL
Filmin Yayınlanma Tarihi: 2020
Baba Aranıyor (Se busca papá) - 2020 - TR+ORG - 720P | tt12721188 TheSteeL 0 32 , Saat: 21:12
Son Yorum: TheSteeL
Filmin Yayınlanma Tarihi: 2019
Beyaz Kentin Sessizliği (El silencio de la ciudad blanca) - 2019 - TR+ORG - 720P | tt8393332 BroserBros 1 257 , Saat: 15:38
Son Yorum: BroserBros
Filmin Yayınlanma Tarihi: 2019
Frankenstein: Ölümsüzlerin Savaşı (I, Frankenstein) - 2014 - TR+ORG - 720P | tt1418377 BroserBros 2 264 , Saat: 15:29
Son Yorum: BroserBros
Filmin Yayınlanma Tarihi: 2002
Akıl Oyunları (A Beautiful Mind) - 2001 - TR+ORG - 720P | tt0268978 BroserBros 1 249 , Saat: 15:12
Son Yorum: BroserBros

Hızlı Menü: