Filmbol Forum Film İndir 1080P v Buz Devri 4: Kıtalar Ayrılıyor (Ice Age: Continental Drift) Türkçe Dublaj BLURAY 1080
Mega linklerinin şikayet edilmemesi için global erişime kapatıp sadece yorum yapanlara açıyoruz. Bu linkleri gizleme işlemini mecburen yapıyoruz ve yorum yapmanızın siteye değil size faydası vardır. Teşekürler yazmayı çok görüp, Random/Spam mesajlar atarak Mega linklerini açmaya çalışan kullanıcılara önce süresiz ban, devam ederse IP ban atacağız.
Filmbol'da moderatör olmak ister misiniz? Bizimle iletişime geçmek için tıklayın!
Buz Devri 4: Kıtalar Ayrılıyor (Ice Age: Continental Drift) Türkçe Dublaj BLURAY 1080
BroserBros
Buz Devri 4: Kıtalar Ayrılıyor (Ice Age: Continental Drift) Türkçe Dublaj BLURAY 1080
0
333
  • Derecelendirme: 0/5 - 0 oy
  • 1
  • 2
  • 3
  • 4
  • 5
Konuyu Okuyanlar:1 Ziyaretçi
Şuan Online!
Filmin Yayınlanma Tarihi: 2012 
WWW
Şuan Online!
BroserBros Kurucu Admin
*******
Admin








 Buz Devri 4: Kıtalar Ayrılıyor



Film'de yine ilk karşımıza çıkan maskot Scrat oluyor. Elinde fındık ile yine pek mantıklı haraketler yapmayan Scrat, bu sefer de yiyeceğini saklamak için bir dağ seçiyor. Dağında yaşamak için bir sebebi kalmamış ki Scrat'ın darbesi ile ortadan ikiye ayrılıyor. Bu durum bir çok şeyi tetikliyor ve kıtaların bölünmesine sebep oluyor. Böylesi bir olaydan etkilenen kahramanlarımız sudan kaçmak için derme çatma bir gemi inşaa ediyor ve olaylar gelişiyor...

Buz Devri 4: Kıtalar Ayrılıyor (2012) (Ice Age: Continental Drift) Filmi Imdb'den 190,000 kişi tarafından oylandı ve 6,6 puan aldı. Bu film için editör puanı 7,0 olarak belirlendi. İyi Seyirler!

Teknik Detaylar

Kod :
General
Unique ID                                : 153390782886981384223715839355697548158 (0x7365FD7D73D9BC7A52379C2715B4CB7E)
Complete name                            : /root/Desktop/1/Buz.Devri.4.Kıtalar.Ayrılıyor.2012.1080p.BluRay.x264.TR.Filmbol.mkv
Format                                   : Matroska
Format version                           : Version 4 / Version 2
File size                                : 1.57 GiB
Duration                                 : 1h 27mn
Overall bit rate                         : 2 553 Kbps
Movie name                               : Buz Devri 4: Kıtalar Ayrılıyor (2012) - Filmbol.org
Encoded date                             : UTC 2020-02-24 14:38:52
Writing application                      : mkvmerge v35.0.0 ('All The Love In The World') 64-bit
Writing library                          : libebml v1.3.9 + libmatroska v1.5.2

Video
ID                                       : 1
Format                                   : AVC
Format/Info                              : Advanced Video Codec
Format profile                           : [email protected]
Format settings, CABAC                   : Yes
Format settings, ReFrames                : 5 frames
Codec ID                                 : V_MPEG4/ISO/AVC
Duration                                 : 1h 27mn
Bit rate                                 : 2 106 Kbps
Width                                    : 1 920 pixels
Height                                   : 800 pixels
Display aspect ratio                     : 2.40:1
Frame rate mode                          : Constant
Frame rate                               : 23.976 (24000/1001) fps
Color space                              : YUV
Chroma subsampling                       : 4:2:0
Bit depth                                : 8 bits
Scan type                                : Progressive
Bits/(Pixel*Frame)                       : 0.057
Stream size                              : 1.29 GiB (82%)
Title                                    : 1080P - Filmbol.org
Writing library                          : x264 core 125 r2200 999b753
Encoding settings                        : cabac=1 / ref=5 / deblock=1:0:0 / analyse=0x3:0x133 / me=umh / subme=9 / psy=1 / psy_rd=1.00:0.00 / mixed_ref=1 / me_range=16 / chroma_me=1 / trellis=2 / 8x8dct=1 / cqm=0 / deadzone=21,11 / fast_pskip=1 / chroma_qp_offset=-2 / threads=12 / lookahead_threads=2 / sliced_threads=0 / nr=0 / decimate=1 / interlaced=0 / bluray_compat=0 / constrained_intra=0 / bframes=3 / b_pyramid=2 / b_adapt=2 / b_bias=2 / direct=3 / weightb=1 / open_gop=0 / weightp=2 / keyint=240 / keyint_min=23 / scenecut=40 / intra_refresh=0 / rc_lookahead=60 / rc=2pass / mbtree=1 / bitrate=2106 / ratetol=1.0 / qcomp=0.60 / qpmin=10 / qpmax=51 / qpstep=4 / cplxblur=20.0 / qblur=0.5 / ip_ratio=1.40 / aq=1:1.00
Default                                  : Yes
Forced                                   : No

Audio
ID                                       : 2
Format                                   : AC-3
Format/Info                              : Audio Coding 3
Mode extension                           : CM (complete main)
Format settings, Endianness              : Big
Codec ID                                 : A_AC3
Duration                                 : 1h 27mn
Bit rate mode                            : Constant
Bit rate                                 : 448 Kbps
Channel(s)                               : 6 channels
Channel positions                        : Front: L C R, Side: L R, LFE
Sampling rate                            : 48.0 KHz
Frame rate                               : 31.250 fps (1536 spf)
Compression mode                         : Lossy
Delay relative to video                  : 24ms
Stream size                              : 281 MiB (18%)
Title                                    : Türkçe - Filmbol.org
Default                                  : Yes
Forced                                   : No

Film Detayları


 Buz Devri 4: Kıtalar Ayrılıyor

 Buz Devri 4: Kıtalar Ayrılıyor

 Buz Devri 4: Kıtalar Ayrılıyor


Film Fragmanı


Film Detayları

Uptobox ile indir

1Fichier ile indir

1Fichier'den İndiremiyor musun? Tıklayın!


Mega linki şuan da gizli. Kullanıma açmak için konuya yorum yapın ve ardından sayfayı yenileyin.

Mega


MediaFire ile indir



Konu ile Alakalı Benzer Konular
Konular Yazar Yorumlar Okunma Son Yorum
Filmin Yayınlanma Tarihi: 2014
Madagaskar Penguenleri (Penguins of Madagascar) Türkçe Dublaj BLURAY 1080P İndir BroserBros 3 711 9 saat önce
Son Yorum: Omertrans505
Filmin Yayınlanma Tarihi: 2002
Harry Potter ve Sırlar Odası (Chamber of Secrets) Türkçe Dublaj BLURAY 1080P İndir BroserBros 25 3,004 02-03-2021, Saat: 22:36
Son Yorum: bjk1001
Filmin Yayınlanma Tarihi: 2018
Soğuk Savaş (Zimna wojna) Türkçe Dublaj BLURAY m1080P İndir BroserBros 2 458 02-03-2021, Saat: 22:26
Son Yorum: Axioma
Filmin Yayınlanma Tarihi: 2012
Rüzgar Yükseliyor (Kaze tachinu) Türkçe Dublaj BLURAY 1080P İndir BroserBros 6 832 28-02-2021, Saat: 21:56
Son Yorum: gamedeveloper68
Filmin Yayınlanma Tarihi: 2019
Avengers: Endgame (2019) Türkçe Dublaj BLURAY m1080P İndir BroserBros 70 5,737 28-02-2021, Saat: 12:58
Son Yorum: ahmettuncr

Hızlı Menü: