Filmbol Forum Film İndir 3D v Buz Devri 3 (Ice Age: Dawn of the Dinosaurs Türkçe Dublaj BLURAY 3D indir
Mega linklerinin şikayet edilmemesi için global erişime kapatıp sadece yorum yapanlara açıyoruz. Bu linkleri gizleme işlemini mecburen yapıyoruz ve yorum yapmanızın siteye değil size faydası vardır. Teşekürler yazmayı çok görüp, Random/Spam mesajlar atarak Mega linklerini açmaya çalışan kullanıcılara önce süresiz ban, devam ederse IP ban atacağız.
Filmbol'da moderatör olmak ister misiniz? Bizimle iletişime geçmek için tıklayın!
Buz Devri 3 (Ice Age: Dawn of the Dinosaurs Türkçe Dublaj BLURAY 3D indir
BroserBros
Buz Devri 3 (Ice Age: Dawn of the Dinosaurs Türkçe Dublaj BLURAY 3D indir
3
561
  • Derecelendirme: 0/5 - 0 oy
  • 1
  • 2
  • 3
  • 4
  • 5
Konuyu Okuyanlar:1 Ziyaretçi
Şuan Online!
Filmin Yayınlanma Tarihi: 2009 
WWW
Şuan Online!
BroserBros Kurucu Admin
*******
Admin








 Buz Devri 3



Yılların hem çocuklar hem büyükler için en sevilen animasyon filmi Buz Devri, 3. Filmi ile karşımızda. Bu filmde kahramanlarımız dinazorlar ile karşılaşacaklardır. İlginç "Dinazorlar her zaman yaşıyordu" tezi bu filmde karşımıza çıkıyor. Buzulların erimesinden dolayı arkadaşlarımız biraz sıkıntı çekecek gibi duruyor, elbette buzulların erimesinden dolayı dinazorların soyu da tehlikeye giriyor.

Buz Devri 3 (2009) (Ice Age: Dawn of the Dinosaurs (Dinozorların Şafağı)) Filmi Imdb'den 220,000 kişi tarafından oylandı ve 6,9 puan aldı. Bu film için editör puanı 7,3 olarak belirlendi. İyi Seyirler!

Teknik Detaylar

Kod :
General
Unique ID                                : 48551972186783958826988262380742403774 (0x2486C50BAC29848592CEDF88677066BE)
Complete name                            : /root/Desktop/3/Buz.Devri.3.Dinozorların.Şafağı.2009.3D.BluRay.x264.TR.Filmbol.mkv
Format                                   : Matroska
Format version                           : Version 4 / Version 2
File size                                : 1.64 GiB
Duration                                 : 1h 34mn
Overall bit rate                         : 2 498 Kbps
Movie name                               : Buz Devri 3 (2009) - Filmbol.org
Encoded date                             : UTC 2020-02-16 12:00:02
Writing application                      : mkvmerge v35.0.0 ('All The Love In The World') 64-bit
Writing library                          : libebml v1.3.9 + libmatroska v1.5.2

Video
ID                                       : 1
Format                                   : AVC
Format/Info                              : Advanced Video Codec
Format profile                           : [email protected]
Format settings, CABAC                   : Yes
Format settings, ReFrames                : 4 frames
Codec ID                                 : V_MPEG4/ISO/AVC
Duration                                 : 1h 34mn
Bit rate                                 : 2 050 Kbps
Width                                    : 1 920 pixels
Height                                   : 1 040 pixels
Display aspect ratio                     : 1.85:1
Frame rate mode                          : Constant
Frame rate                               : 23.976 (24000/1001) fps
Color space                              : YUV
Chroma subsampling                       : 4:2:0
Bit depth                                : 8 bits
Scan type                                : Progressive
Bits/(Pixel*Frame)                       : 0.043
Stream size                              : 1.35 GiB (82%)
Title                                    : 3D - Filmbol.org
Writing library                          : x264 core 148
Encoding settings                        : cabac=1 / ref=4 / deblock=1:-1:-1 / analyse=0x3:0x133 / me=umh / subme=9 / psy=1 / psy_rd=1.00:0.15 / mixed_ref=1 / me_range=24 / chroma_me=1 / trellis=2 / 8x8dct=1 / cqm=0 / deadzone=21,11 / fast_pskip=0 / chroma_qp_offset=-3 / threads=12 / lookahead_threads=1 / sliced_threads=0 / nr=0 / decimate=1 / interlaced=0 / bluray_compat=0 / constrained_intra=0 / bframes=3 / b_pyramid=2 / b_adapt=2 / b_bias=0 / direct=3 / weightb=1 / open_gop=0 / weightp=2 / keyint=250 / keyint_min=23 / scenecut=40 / intra_refresh=0 / rc_lookahead=60 / rc=2pass / mbtree=1 / bitrate=2050 / ratetol=1.0 / qcomp=0.60 / qpmin=0 / qpmax=69 / qpstep=4 / cplxblur=20.0 / qblur=0.5 / vbv_maxrate=31250 / vbv_bufsize=31250 / nal_hrd=none / filler=0 / ip_ratio=1.40 / aq=1:1.00
Default                                  : Yes
Forced                                   : No

Audio
ID                                       : 2
Format                                   : AC-3
Format/Info                              : Audio Coding 3
Mode extension                           : CM (complete main)
Format settings, Endianness              : Big
Codec ID                                 : A_AC3
Duration                                 : 1h 34mn
Bit rate mode                            : Constant
Bit rate                                 : 448 Kbps
Channel(s)                               : 6 channels
Channel positions                        : Front: L C R, Side: L R, LFE
Sampling rate                            : 48.0 KHz
Frame rate                               : 31.250 fps (1536 spf)
Compression mode                         : Lossy
Stream size                              : 301 MiB (18%)
Title                                    : Türkçe - Filmbol.org
Default                                  : Yes
Forced                                   : No

Film Detayları


 Buz Devri 3

 Buz Devri 3

 Buz Devri 3


Film Fragmanı


Film Detayları

Uptobox ile indir

1Fichier ile indir

1Fichier'den İndiremiyor musun? Tıklayın!


Mega linki şuan da gizli. Kullanıma açmak için konuya yorum yapın ve ardından sayfayı yenileyin.

Mega


MediaFire ile indir

Şuan Offine!
Şuan Offine!
AhmetArifTurkes Yeni Üye
*
Üye

  • Konular0
  • Mesajlar1
  • Rep puanı 0
güzel
Şuan Offine!
Şuan Offine!
otobus Yeni Üye
*
Üye

  • Konular0
  • Mesajlar5
  • Rep puanı 0
teşekkürler
Şuan Offine!
Şuan Offine!
apkinar Yeni Üye
*
Üye

  • Konular0
  • Mesajlar2
  • Rep puanı 0
teşekkür


Konu ile Alakalı Benzer Konular
Konular Yazar Yorumlar Okunma Son Yorum
Filmin Yayınlanma Tarihi: 2017
Galaksinin Koruyucuları 2 (Guardians of the Galaxy 2) Türkçe Dublaj BLURAY 3D İndir BroserBros 1 353 23-02-2021, Saat: 15:32
Son Yorum: Kingstone
Filmin Yayınlanma Tarihi: 2012
Pi'nin Yaşamı (Life of Pi) Türkçe Dublaj BLURAY 3D indir BroserBros 1 503 23-02-2021, Saat: 15:31
Son Yorum: Kingstone
Filmin Yayınlanma Tarihi: 2014
Galaksinin Koruyucuları (Guardians of the Galaxy) Türkçe Dublaj BLURAY 3D indir BroserBros 2 389 23-02-2021, Saat: 15:25
Son Yorum: Kingstone
Filmin Yayınlanma Tarihi: 2018
Karınca-Adam ve Eşek Arısı (Ant-Man and Wasp) Türkçe Dublaj BLURAY 3D İndir BroserBros 4 771 22-02-2021, Saat: 22:44
Son Yorum: Kingstone
Filmin Yayınlanma Tarihi: 2012
Buz Devri 4: Kıtalar Ayrılıyor (Ice Age: Continental Drift) Türkçe Dublaj BLURAY 3D BroserBros 3 347 14-02-2021, Saat: 12:40
Son Yorum: apkinar

Hızlı Menü: