Filmbol Forum Film İndir 1080P v Buz Devri 2 (Erime Başlıyor (Ice Age: The Meltdown)) Türkçe Dublaj BLURAY 1080P indir
Mega linklerinin şikayet edilmemesi için global erişime kapatıp sadece yorum yapanlara açıyoruz. Bu linkleri gizleme işlemini mecburen yapıyoruz ve yorum yapmanızın siteye değil size faydası vardır. Teşekürler yazmayı çok görüp, Random/Spam mesajlar atarak Mega linklerini açmaya çalışan kullanıcılara önce süresiz ban, devam ederse IP ban atacağız.
Filmbol'da moderatör olmak ister misiniz? Bizimle iletişime geçmek için tıklayın!
Buz Devri 2 (Erime Başlıyor (Ice Age: The Meltdown)) Türkçe Dublaj BLURAY 1080P indir
BroserBros
Buz Devri 2 (Erime Başlıyor (Ice Age: The Meltdown)) Türkçe Dublaj BLURAY 1080P indir
2
348
  • Derecelendirme: 0/5 - 0 oy
  • 1
  • 2
  • 3
  • 4
  • 5
Konuyu Okuyanlar:1 Ziyaretçi
Şuan Online!
Filmin Yayınlanma Tarihi: 2006 
WWW
Şuan Online!
BroserBros Kurucu Admin
*******
Admin








 Buz Devri 2



Serinin ikinci filminde, bizi yeni karakterler ve yine kusursuz sayılabilir senaryosu ile Buz Devri karşılıyor. Serinin ikinci filmi başlar başlamaz sizi konuya sürükleyebilir çünkü zaten herkesin hakim olduğu can alıcı bir noktadan giriyor, eriyen buzullar! Ayrıca filmde ilk filme göre animasyonların daha da geliştiğini göreceksiniz. Kahramanlarımız bu filmde eriyen buzullardan kaçmak zorundadır ve bu kaçışta ekibe yeni yüzlerde katılacaktır.

Buz Devri 2 (2006) (Erime Başlıyor (Ice Age: The Meltdown)) Filmi Imdb'den 250,000 kişi tarafından oylandı ve 6,8 puan aldı. Bu film için editör puanı 8,0 olarak belirlendi. İyi Seyirler!

Teknik Detaylar

Kod :
General
Unique ID                                : 214468493213741945451645149552836854318 (0xA159211B2AEBEBDFD141CE49A2A3C22E)
Complete name                            : /root/Desktop/7/Buz.Devri.2.Erime.Başlıyor.2006.1080p.x264.TR.Filmbol.mkv
Format                                   : Matroska
Format version                           : Version 4 / Version 2
File size                                : 1.58 GiB
Duration                                 : 1h 30mn
Overall bit rate                         : 2 497 Kbps
Movie name                               : Buz Devri 2 - Erime Başlıyor (2006) - Filmbol.org
Encoded date                             : UTC 2020-02-16 14:24:30
Writing application                      : mkvmerge v35.0.0 ('All The Love In The World') 64-bit
Writing library                          : libebml v1.3.9 + libmatroska v1.5.2

Video
ID                                       : 1
Format                                   : AVC
Format/Info                              : Advanced Video Codec
Format profile                           : [email protected]
Format settings, CABAC                   : Yes
Format settings, ReFrames                : 4 frames
Codec ID                                 : V_MPEG4/ISO/AVC
Duration                                 : 1h 30mn
Bit rate                                 : 2 050 Kbps
Width                                    : 1 920 pixels
Height                                   : 1 024 pixels
Display aspect ratio                     : 1.85:1
Frame rate mode                          : Constant
Frame rate                               : 23.976 (24000/1001) fps
Color space                              : YUV
Chroma subsampling                       : 4:2:0
Bit depth                                : 8 bits
Scan type                                : Progressive
Bits/(Pixel*Frame)                       : 0.043
Stream size                              : 1.30 GiB (82%)
Title                                    : 1080P - Filmbol.org
Writing library                          : x264 core 148
Encoding settings                        : cabac=1 / ref=4 / deblock=1:-1:-1 / analyse=0x3:0x133 / me=umh / subme=9 / psy=1 / psy_rd=1.00:0.15 / mixed_ref=1 / me_range=24 / chroma_me=1 / trellis=2 / 8x8dct=1 / cqm=0 / deadzone=21,11 / fast_pskip=0 / chroma_qp_offset=-3 / threads=12 / lookahead_threads=1 / sliced_threads=0 / nr=0 / decimate=1 / interlaced=0 / bluray_compat=0 / constrained_intra=0 / bframes=3 / b_pyramid=2 / b_adapt=2 / b_bias=0 / direct=3 / weightb=1 / open_gop=0 / weightp=2 / keyint=250 / keyint_min=23 / scenecut=40 / intra_refresh=0 / rc_lookahead=60 / rc=2pass / mbtree=1 / bitrate=2050 / ratetol=1.0 / qcomp=0.60 / qpmin=0 / qpmax=69 / qpstep=4 / cplxblur=20.0 / qblur=0.5 / vbv_maxrate=31250 / vbv_bufsize=31250 / nal_hrd=none / filler=0 / ip_ratio=1.40 / aq=1:1.00
Default                                  : Yes
Forced                                   : No

Audio
ID                                       : 2
Format                                   : AC-3
Format/Info                              : Audio Coding 3
Mode extension                           : CM (complete main)
Format settings, Endianness              : Big
Codec ID                                 : A_AC3
Duration                                 : 1h 30mn
Bit rate mode                            : Constant
Bit rate                                 : 448 Kbps
Channel(s)                               : 6 channels
Channel positions                        : Front: L C R, Side: L R, LFE
Sampling rate                            : 48.0 KHz
Frame rate                               : 31.250 fps (1536 spf)
Compression mode                         : Lossy
Stream size                              : 290 MiB (18%)
Title                                    : Türkçe - Filmbol.org
Default                                  : Yes
Forced                                   : No

Film Detayları


 Buz Devri 2

 Buz Devri 2

 Buz Devri 2


Film Fragmanı


Film Detayları

Uptobox ile indir

1Fichier ile indir

1Fichier'den İndiremiyor musun? Tıklayın!


Mega linki şuan da gizli. Kullanıma açmak için konuya yorum yapın ve ardından sayfayı yenileyin.

Mega


MediaFire ile indir

Şuan Offine!
Şuan Offine!
berkemir Uzman Üye
**
Uzman Üye

  • Konular0
  • Mesajlar12
  • Rep puanı 0
Teşekkürler
Şuan Offine!
Şuan Offine!
cmg44 Uzman Üye
**
Uzman Üye

  • Konular0
  • Mesajlar8
  • Rep puanı 0
Eyvallah iyi çalışmalar.


Konu ile Alakalı Benzer Konular
Konular Yazar Yorumlar Okunma Son Yorum
Filmin Yayınlanma Tarihi: 2016
The Nice Guys: İyi Adamlar (2016) Türkçe Dublaj 1080P İndir BroserBros 4 1,316 7 saat önce
Son Yorum: ANDREMEDAN
Filmin Yayınlanma Tarihi: 2014
Madagaskar Penguenleri (Penguins of Madagascar) Türkçe Dublaj BLURAY 1080P İndir BroserBros 3 711 9 saat önce
Son Yorum: Omertrans505
Filmin Yayınlanma Tarihi: 2020
Her Zaman Şeytan (The Devil All the Time) - 2020 - TR+ORG - 1080P | tt7395114 TheSteeL 0 18 11 saat önce
Son Yorum: TheSteeL
Filmin Yayınlanma Tarihi: 2020
Baba Aranıyor (Se busca papá) - 2020 - TR+ORG - 1080P | tt12721188 TheSteeL 0 21 11 saat önce
Son Yorum: TheSteeL
Filmin Yayınlanma Tarihi: 2019
Beyaz Kentin Sessizliği (El silencio de la ciudad blanca) - 2019 - TR+ORG - 1080P | tt8393332 BroserBros 1 255 , Saat: 15:38
Son Yorum: BroserBros

Hızlı Menü: