Hoşgeldin, Ziyaretçi: Giriş Yap Üye Ol


Konuyu Oyla:
  • Derecelendirme: 0/5 - 0 oy
  • 1
  • 2
  • 3
  • 4
  • 5
Title: Bumblebee Türkçe Dublaj Brrip Xvid İndir
Gösterim Stili
#1
Filmin Yayınlanma Tarihi: 2018 

indirme türü


Bulut + Premium

vizyon tarihi


21 Aralık 2018

Boyutlar


1,34

diller


[TR]

altyazilar


Yok [Eklenebilir]

Video Format: Avi


Audio Video Interleave (.AVI)

Video Detay


MPEG-4, 1571 Kbps, 1,25 GB

imdb puanı


6,9 / 10,0 / 100,000

süre


114 dakika

Ses Kodek: MP3


MPEG-1 Audio Layer III (MP3)

Ses Detay


128 Kbps, 2 Kanal, 104Mb

Editör Puanı


7,0

Genislik Yukseklik


720-400

sürüm


h263 | Brrip-Xvid


Film Detayları

Otobotlara yeni bir yuva bulmak üzere görevlendirilen Bumblebee,  1987 yılında Kaliforniya'da bulunan bir sahil kasabasına yerleşir. İşler yolunda gitmez ve Bumblebee bir hurdalığa düşer. Charlie Watson, bu yaralı ve savaştan yorgun düşmüş otobot için elinden geleni yapacak ve yaralarını saracaktır.
Bumblebee (2018) Filmi Imdb'den 45,000 kişi tarafından oylandı ve 5,9 puan aldı. Bu film için editör puanı 6,3 olarak belirlendi. İyi Seyirler!


Teknik Detaylar

Kod:
General
Complete name                            : Bumblebee.2018.BRRip.XviD.TR.Filmbol.avi
Format                                   : AVI
Format/Info                              : Audio Video Interleave
File size                                : 1.36 GiB
Duration                                 : 1h 53mn
Overall bit rate                         : 1 712 Kbps

Video
ID                                       : 0
Format                                   : MPEG-4 Visual
Format profile                           : Simple@L5
Format settings, BVOP                    : No
Format settings, QPel                    : No
Format settings, GMC                     : No warppoints
Format settings, Matrix                  : Default (H.263)
Codec ID                                 : XVID
Codec ID/Hint                            : XviD
Duration                                 : 1h 53mn
Bit rate                                 : 1 571 Kbps
Width                                    : 720 pixels
Height                                   : 400 pixels
Display aspect ratio                     : 16:9
Frame rate                               : 23.976 fps
Color space                              : YUV
Chroma subsampling                       : 4:2:0
Bit depth                                : 8 bits
Scan type                                : Progressive
Compression mode                         : Lossy
Bits/(Pixel*Frame)                       : 0.228
Stream size                              : 1.25 GiB (92%)
Writing library                          : Lavc58.35.100

Audio
ID                                       : 1
Format                                   : MPEG Audio
Format version                           : Version 1
Format profile                           : Layer 3
Mode                                     : Joint stereo
Codec ID                                 : 55
Codec ID/Hint                            : MP3
Duration                                 : 1h 53mn
Bit rate mode                            : Constant
Bit rate                                 : 128 Kbps
Channel(s)                               : 2 channels
Sampling rate                            : 48.0 KHz
Compression mode                         : Lossy
Stream size                              : 104 MiB (7%)
Alignment                                : Aligned on interleaves
Interleave, duration                     : 24 ms (0.58 video frame)



Film Detayları


Bumblebee Turkce Dublaj indir

Bumblebee Turkce Dublaj indir

Bumblebee Turkce Dublaj indir

Bumblebee Turkce Dublaj indir

Bumblebee Turkce Dublaj indir


Film Fragmanı


Film Detayları

Brrip İndir


Uptobox ile indir

j55p
Mega linki şuan da gizli. Kullanıma açmak için konuya yorum yapın ve ardından sayfayı yenileyin. Ayrıca bu linki açtığınızda reklamsız olarak erişebileceğinizi unutmayın.

Mega



LetsUpload ile indir

Mega Upload ile indir

 
Cevapla
#2
tesekkürler
 
Cevapla
  


Konu ile Alakalı Benzer Konular
Konular Yazar Yorumlar Okunma Son Yorum
Filmin Yayınlanma Tarihi: 1990 Geleceğe Dönüş 3 (Back to the Future Part III) Türkçe Dublaj Brrip Xvid İndir BroserBros 2 306 , Saat: 23:56
Son Yorum: sectechno
Filmin Yayınlanma Tarihi: 2012 Savaş Gemisi (Battleship) Türkçe Dublaj Brrip-Xvid İndir BroserBros 2 1,229 24-02-2020, Saat: 21:01
Son Yorum: tarik55
Filmin Yayınlanma Tarihi: 2005 Serenity: Gizemli Yolculuk (Serenity) Türkçe Dublaj BRRip XviD indir BroserBros 3 183 24-02-2020, Saat: 20:55
Son Yorum: tarik55
Filmin Yayınlanma Tarihi: 1985 Geleceğe Dönüş (Back to the Future) Türkçe Dublaj Brrip Xvid İndir BroserBros 2 264 15-02-2020, Saat: 19:23
Son Yorum: hokkabaz256
Filmin Yayınlanma Tarihi: 2019 The Wave (2019) Türkçe Dublaj BRRip XviD indir BroserBros 0 71 15-02-2020, Saat: 13:14
Son Yorum: BroserBros

Hızlı Menü:


Browsing: 1 Ziyaretçi