Hoşgeldin, Ziyaretçi: Giriş Yap Üye Ol


stats
Adblock'u kapattıysanız tıklayın.
Hoşgeldiniz!
Filmbol'u tercih ettiğiniz için teşekkürler, ancak ablock kullanarak devam edemezsiniz.
Merak etmeyin. Heryerden ardı ardına çıkan reklamlar görmeyeceksiniz :)

Sadece site içi 1 reklam göreceksin ve bu site gezintini etkilemeyecek.
Konuyu Oyla:
  • Derecelendirme: 0/5 - 0 oy
  • 1
  • 2
  • 3
  • 4
  • 5
Bumblebee Türkçe Dublaj Brrip Xvid İndir
#1
Filmin Yayınlanma Tarihi: 2018 

indirme türü


Bulut + Premium

vizyon tarihi


21 Aralık 2018

Boyutlar


1,34

diller


[TR]

altyazilar


Yok [Eklenebilir]

Video Format: Avi


Audio Video Interleave (.AVI)

Video Detay


MPEG-4, 1571 Kbps, 1,25 GB

imdb puanı


6,9 / 10,0 / 100,000

süre


114 dakika

Ses Kodek: MP3


MPEG-1 Audio Layer III (MP3)

Ses Detay


128 Kbps, 2 Kanal, 104Mb

Editör Puanı


7,0

Genislik Yukseklik


720-400

sürüm


h263 | Brrip-Xvid



Film Detayları

Otobotlara yeni bir yuva bulmak üzere görevlendirilen Bumblebee,  1987 yılında Kaliforniya'da bulunan bir sahil kasabasına yerleşir. İşler yolunda gitmez ve Bumblebee bir hurdalığa düşer. Charlie Watson, bu yaralı ve savaştan yorgun düşmüş otobot için elinden geleni yapacak ve yaralarını saracaktır.
Bumblebee (2018) Filmi Imdb'den 45,000 kişi tarafından oylandı ve 5,9 puan aldı. Bu film için editör puanı 6,3 olarak belirlendi. İyi Seyirler!


Teknik Detaylar


Kod:
General
Complete name                            : Bumblebee.2018.BRRip.XviD.TR.Filmbol.avi
Format                                   : AVI
Format/Info                              : Audio Video Interleave
File size                                : 1.36 GiB
Duration                                 : 1h 53mn
Overall bit rate                         : 1 712 Kbps

Video
ID                                       : 0
Format                                   : MPEG-4 Visual
Format profile                           : Simple@L5
Format settings, BVOP                    : No
Format settings, QPel                    : No
Format settings, GMC                     : No warppoints
Format settings, Matrix                  : Default (H.263)
Codec ID                                 : XVID
Codec ID/Hint                            : XviD
Duration                                 : 1h 53mn
Bit rate                                 : 1 571 Kbps
Width                                    : 720 pixels
Height                                   : 400 pixels
Display aspect ratio                     : 16:9
Frame rate                               : 23.976 fps
Color space                              : YUV
Chroma subsampling                       : 4:2:0
Bit depth                                : 8 bits
Scan type                                : Progressive
Compression mode                         : Lossy
Bits/(Pixel*Frame)                       : 0.228
Stream size                              : 1.25 GiB (92%)
Writing library                          : Lavc58.35.100

Audio
ID                                       : 1
Format                                   : MPEG Audio
Format version                           : Version 1
Format profile                           : Layer 3
Mode                                     : Joint stereo
Codec ID                                 : 55
Codec ID/Hint                            : MP3
Duration                                 : 1h 53mn
Bit rate mode                            : Constant
Bit rate                                 : 128 Kbps
Channel(s)                               : 2 channels
Sampling rate                            : 48.0 KHz
Compression mode                         : Lossy
Stream size                              : 104 MiB (7%)
Alignment                                : Aligned on interleaves
Interleave, duration                     : 24 ms (0.58 video frame)



Film Detayları


Bumblebee Turkce Dublaj indir

Bumblebee Turkce Dublaj indir

Bumblebee Turkce Dublaj indir

Bumblebee Turkce Dublaj indir

Bumblebee Turkce Dublaj indir


Film Fragmanı


Film Detayları

Brrip İndir


Turbobit İle İndir

Uptobox ile indir

Dosya Co ile indir

Dosya Upload ile indir

Mega ile indir

Filmbol'da aşağıdaki linkler sadece üyelere sunulur. Ayrıca bu linklerde link kısaltma servisleri kullanılmaz, linke tek tık ile reklamsız erişirsiniz. Konu'ya yorum yapın ve sayfayı yenileyin. Reklamsız linkler (en az 3 en fazla 5 link) açılmış olacaktır. Not: Filmbol'a üye olmak tamamen ücretsizdir, en az 3 link kuralı 01.07.2019 tarihinden sonraki paylaşımlar için geçerlidir. Ancak çoğu film için en az bir premium link her zaman bulunur.

Mega

Dosyaco

Dosyaupload

Mediafire

Google Drive
 
Cevapla
  


Konu ile Alakalı Benzer Konular
Konular Yazar Yorumlar Okunma Son Yorum
Filmin Yayınlanma Tarihi: 2019 Avengers: Endgame (2019) Türkçe Dublaj Brrip Xvid İndir BroserBros 11 318 2 saat önce
Son Yorum: İSMAİL
Filmin Yayınlanma Tarihi: 2019 X-Men: Dark Phoenix (2019) Türkçe Dublaj Brrip Xvid İndir BroserBros 1 138 14-09-2019, Saat: 16:04
Son Yorum: gece_yagmuru
Filmin Yayınlanma Tarihi: 2018 Bird Box (2018) Türkçe Dublaj Brrip Xvid İndir BroserBros 1 71 06-09-2019, Saat: 23:36
Son Yorum: lolkek
Filmin Yayınlanma Tarihi: 2014 Yıldızlararası (Interstellar) Türkçe Dublaj Brrip-Xvid İndir BroserBros 3 3,329 06-09-2019, Saat: 17:17
Son Yorum: mrverol
Filmin Yayınlanma Tarihi: 2018 Venom: Zehirli Öfke Türkçe Dublaj Brrip-Xvid İndir DRMOV 1 357 18-08-2019, Saat: 13:42
Son Yorum: hugomaan

Hızlı Menü:


Şu anda bu konuyu okuyanlar: 1 Ziyaretçi