Filmbol Forum Film İndir BRRip XviD v Brightburn (2019) Türkçe Dublaj Brrip Xvid İndir
Filmbol'da moderatör olmak ister misiniz? Bizimle iletişime geçmek için tıklayın!
Brightburn (2019) Türkçe Dublaj Brrip Xvid İndir
BroserBros
Brightburn (2019) Türkçe Dublaj Brrip Xvid İndir
2
460
  • Derecelendirme: 0/5 - 0 oy
  • 1
  • 2
  • 3
  • 4
  • 5
Konuyu Okuyanlar:1 Ziyaretçi
Şuan Online!
Filmin Yayınlanma Tarihi: 2019 
Şuan Online!
BroserBros Kurucu Admin
*******
Admin

indirme türü


Bulut + Premium

Vizyon Tarihi


24 Mayıs 2019

Boyutlar


0,84

diller


[TR]

altyazilar


Yok [Eklenebilir]

Video Format: Avi


Audio Video Interleave (.AVI)

Video Detay


MPEG-4, 1170Kbps, 0,75GB

imdb puanı


6,2 / 10,0 / 60,000

süre


90 dakika

Ses Kodek: MP3


MPEG-1 Audio Layer III (MP3)

Ses Detay


128 Kbps, 2 Kanal, 83Mb

Editör Puanı


7,0

Genislik Yukseklik


720-304

sürüm


h263 | Brrip Xvid




BrightBurn


Film Detayları

Çizgi romanlar çağında yaşamak bizleri süper kahramanların var olması fikrine sıcak bakmaya itmekte. Dünyayı korumak, dünyalıları gözetmek ve adaleti sağlamak için kurgusal bir süper kahramanın ete kemiğe bürünerek aramızda yaşaması fikri pek çok kişi tarafından olumlu karşılanabilir. Bunun en önemli sebebi de, süper güçlü olan bu isimsiz kişinin, dünyayı koruma sorumluluğunu alacağına ve bozulmaz ahlak kuralları ile her zaman doğru tarafta yer alacağına dair çizgi roman dünyasının bizi ikna ettiği gerekçelerdir. Ancak ya tam tersi olursa? Ya gerçekten uzaydan düşen minik bir bebek bulunur ve çiftçi bir aile tarafından evlat edinilirse? Fakat kim olduğunu bilmese de farklı olduğunun bilincinde olan bu çocuk büyüdükçe bir kahramandan çok bir düşmana dönüşmeye başlarsa? Süper güçlü olanın karşımızda değil de yanımızda olacağı inancımızı paramparça eden bu senaryoda ne kadar güvende olabiliriz?... Kırsal hayatlarına gökten düşen bir bebeği dahil eden aile, zamanla büyükmekte oldukları çocuğun sandıklarından çok daha fazla kötülük ve güç barındırdığını keşfediyorlar. Ancak nereden geldiklerini bile bilmedikleri bu çocuğu durdurmanın yolu ne olacak

Brightburn (2019) Filmi Imdb'den 60,000 kişi tarafından oylandı ve 6,2 puan aldı. Bu film için editör puanı 7,0 olarak belirlendi. İyi Seyirler!


Teknik Detaylar


Kod :
General
Complete name                            : Brightburn.2019.BRRip.XviD.TR.Filmbol.avi
Format                                   : AVI
Format/Info                              : Audio Video Interleave
File size                                : 849 MiB
Duration                                 : 1h 30mn
Overall bit rate                         : 1 311 Kbps

Video
ID                                       : 0
Format                                   : MPEG-4 Visual
Format profile                           : Advanced Simple@L5
Format settings, BVOP                    : 2
Format settings, QPel                    : No
Format settings, GMC                     : No warppoints
Format settings, Matrix                  : Default (MPEG)
Codec ID                                 : XVID
Codec ID/Hint                            : XviD
Duration                                 : 1h 30mn
Bit rate                                 : 1 170 Kbps
Width                                    : 720 pixels
Height                                   : 304 pixels
Display aspect ratio                     : 2.35:1
Frame rate                               : 23.976 (23976/1000) fps
Color space                              : YUV
Chroma subsampling                       : 4:2:0
Bit depth                                : 8 bits
Scan type                                : Progressive
Compression mode                         : Lossy
Bits/(Pixel*Frame)                       : 0.223
Stream size                              : 757 MiB (89%)
Writing library                          : XviD 64

Audio
ID                                       : 1
Format                                   : MPEG Audio
Format version                           : Version 1
Format profile                           : Layer 3
Mode                                     : Joint stereo
Mode extension                           : MS Stereo
Codec ID                                 : 55
Codec ID/Hint                            : MP3
Duration                                 : 1h 30mn
Bit rate mode                            : Constant
Bit rate                                 : 128 Kbps
Channel(s)                               : 2 channels
Sampling rate                            : 48.0 KHz
Compression mode                         : Lossy
Stream size                              : 82.9 MiB (10%)
Alignment                                : Aligned on interleaves
Interleave, duration                     : 24 ms (0.58 video frame)
Writing library                          : LAME3.99.5

Film Detayları


Brightburn

Brightburn

Brightburn


Film Fragmanı


Film Detayları

Brrip İndir



Uptobox ile indir

LetsUpload ile indir

DosyaUpload ile indir

Mega ile indir

MediaFire ile indir

Şuan Offine!
Şuan Offine!
komador06 Süper Üye
***
Super Üye

  • Konular0
  • Mesajlar28
  • Rep puanı 0
teşekkürler..
Şuan Offine!
Şuan Offine!
cemsav97 Süper Üye
***
Super Üye

  • Konular0
  • Mesajlar36
  • Rep puanı 0
Teşekkürler


Konu ile Alakalı Benzer Konular
Konular Yazar Yorumlar Okunma Son Yorum
Filmin Yayınlanma Tarihi: 2019
Luce (Luce) - 2019 - TR - BRRip XviD BroserBros 0 15 8 saat önce
Son Yorum: BroserBros
Filmin Yayınlanma Tarihi: 2020
Aşka İnan (I Still Believe) - 2020 - TR - BRRip XviD BroserBros 0 14 9 saat önce
Son Yorum: BroserBros
Filmin Yayınlanma Tarihi: 2018
Döndüm Ben (Yerli) - 2018 - TR - BRRip XviD BroserBros 0 35 27-11-2020, Saat: 18:40
Son Yorum: BroserBros
Filmin Yayınlanma Tarihi: 2018
Bana Bir Soygun Yaz 2 (Yerli) - 2018 - TR - BRRip XviD BroserBros 0 27 27-11-2020, Saat: 18:26
Son Yorum: BroserBros
Filmin Yayınlanma Tarihi: 2007
Amerikan Pastası 6: Beta Evi (American Pie: Beta House) - 2007 - TR - BRRip XviD BroserBros 2 247 27-11-2020, Saat: 14:31
Son Yorum: tayyib5731

Hızlı Menü: