Filmbol Forum Film İndir 1080P v Brightburn (2019) Türkçe Dublaj BLURAY m1080P İndir
Filmbol'da moderatör olmak ister misiniz? Bizimle iletişime geçmek için tıklayın!
Brightburn (2019) Türkçe Dublaj BLURAY m1080P İndir
BroserBros
Brightburn (2019) Türkçe Dublaj BLURAY m1080P İndir
5
576
  • Derecelendirme: 0/5 - 0 oy
  • 1
  • 2
  • 3
  • 4
  • 5
Konuyu Okuyanlar:1 Ziyaretçi
Şuan Online!
Filmin Yayınlanma Tarihi: 2019 
Şuan Online!
BroserBros Kurucu Admin
*******
Admin

indirme türü


Bulut + Premium

Vizyon Tarihi


24 Mayıs 2019

Boyutlar


1,51

diller


[TR]

altyazilar


Yok [Eklenebilir]

Video Format: Mkv


Matroska (.MKV)

Video Detay


MPEG-4, 2000Kbps, 1,26GB

imdb puanı


6,2 / 10,0 / 60,000

süre


90 dakika

Ses Kodek: AC3


Audio Coding 3 (AC3)

Ses Detay


384 Kbps, 6 Kanal, 249Mb

Editör Puanı


7,0

Genislik Yukseklik


1920-800

sürüm


x264 | 1080P




BrightBurn


Film Detayları

Çizgi romanlar çağında yaşamak bizleri süper kahramanların var olması fikrine sıcak bakmaya itmekte. Dünyayı korumak, dünyalıları gözetmek ve adaleti sağlamak için kurgusal bir süper kahramanın ete kemiğe bürünerek aramızda yaşaması fikri pek çok kişi tarafından olumlu karşılanabilir. Bunun en önemli sebebi de, süper güçlü olan bu isimsiz kişinin, dünyayı koruma sorumluluğunu alacağına ve bozulmaz ahlak kuralları ile her zaman doğru tarafta yer alacağına dair çizgi roman dünyasının bizi ikna ettiği gerekçelerdir. Ancak ya tam tersi olursa? Ya gerçekten uzaydan düşen minik bir bebek bulunur ve çiftçi bir aile tarafından evlat edinilirse? Fakat kim olduğunu bilmese de farklı olduğunun bilincinde olan bu çocuk büyüdükçe bir kahramandan çok bir düşmana dönüşmeye başlarsa? Süper güçlü olanın karşımızda değil de yanımızda olacağı inancımızı paramparça eden bu senaryoda ne kadar güvende olabiliriz?... Kırsal hayatlarına gökten düşen bir bebeği dahil eden aile, zamanla büyükmekte oldukları çocuğun sandıklarından çok daha fazla kötülük ve güç barındırdığını keşfediyorlar. Ancak nereden geldiklerini bile bilmedikleri bu çocuğu durdurmanın yolu ne olacak

Brightburn (2019) Filmi Imdb'den 60,000 kişi tarafından oylandı ve 6,2 puan aldı. Bu film için editör puanı 7,0 olarak belirlendi. İyi Seyirler!


Teknik Detaylar


Kod :
General
Complete name                            : Brightburn.2019.m1080p.BLURAY.x264.TR.Filmbol.mkv
Format                                   : Matroska
Format version                           : Version 4 / Version 2
File size                                : 1.51 GiB
Duration                                 : 1h 30mn
Overall bit rate                         : 2 386 Kbps
Movie name                               : Brightburn (2019) - Filmbol.org
Encoded date                             : UTC 2019-11-25 02:23:34
Writing application                      : mkvmerge v35.0.0 ('All The Love In The World') 64-bit
Writing library                          : libebml v1.3.9 + libmatroska v1.5.2

Video
ID                                       : 1
Format                                   : AVC
Format/Info                              : Advanced Video Codec
Format profile                           : High@L4.1
Format settings, CABAC                   : Yes
Format settings, ReFrames                : 4 frames
Codec ID                                 : V_MPEG4/ISO/AVC
Duration                                 : 1h 30mn
Bit rate                                 : 2 000 Kbps
Width                                    : 1 920 pixels
Height                                   : 800 pixels
Display aspect ratio                     : 2.40:1
Frame rate mode                          : Constant
Frame rate                               : 23.976 (24000/1001) fps
Color space                              : YUV
Chroma subsampling                       : 4:2:0
Bit depth                                : 8 bits
Scan type                                : Progressive
Bits/(Pixel*Frame)                       : 0.054
Stream size                              : 1.26 GiB (84%)
Title                                    : 1080P - Filmbol.org
Writing library                          : x264 core 152
Default                                  : Yes
Forced                                   : No

Audio
ID                                       : 2
Format                                   : AC-3
Format/Info                              : Audio Coding 3
Mode extension                           : CM (complete main)
Format settings, Endianness              : Big
Codec ID                                 : A_AC3
Duration                                 : 1h 30mn
Bit rate mode                            : Constant
Bit rate                                 : 384 Kbps
Channel(s)                               : 6 channels
Channel positions                        : Front: L C R, Side: L R, LFE
Sampling rate                            : 48.0 KHz
Frame rate                               : 31.250 fps (1536 spf)
Compression mode                         : Lossy
Stream size                              : 249 MiB (16%)
Title                                    : Türkçe - Filmbol.org
Language                                 : Turkish
Default                                  : Yes
Forced                                   : No

Film Detayları


Brightburn

Brightburn

Brightburn


Film Fragmanı


Film Detayları

Mini 1080P İndir



Uptobox ile indir

LetsUpload ile indir

DosyaUpload ile indir

Mega ile indir

MediaFire ile indir

Şuan Offine!
Şuan Offine!
caner Süper Üye
***
Super Üye

  • Konular0
  • Mesajlar52
  • Rep puanı 0
teşekkürler
Şuan Offine!
Şuan Offine!
berzanaltin Yeni Üye
*
Üye

  • Konular0
  • Mesajlar1
  • Rep puanı 0
süperr abii
Şuan Offine!
Şuan Offine!
ahmetyee1 Süper Üye
***
Super Üye

  • Konular3
  • Mesajlar54
  • Rep puanı 0
yaşasın :
Şuan Offine!
Şuan Offine!
mehmeturyan Yeni Üye
*
Üye

  • Konular0
  • Mesajlar5
  • Rep puanı 0
Teşekkürler
Şuan Offine!
Şuan Offine!
asdas Uzman Üye
**
Uzman Üye

  • Konular0
  • Mesajlar6
  • Rep puanı 0
hahahahahahaha

Harika


Konu ile Alakalı Benzer Konular
Konular Yazar Yorumlar Okunma Son Yorum
Filmin Yayınlanma Tarihi: 2019
15 Dakika Savaş (L'intervention) - 2019 - TR+ORG - 1080P BroserBros 0 20 , Saat: 17:42
Son Yorum: BroserBros
Filmin Yayınlanma Tarihi: 2019
Gel Babacığına (Come to Daddy) - 2019 - TR+ORG - 1080P BroserBros 0 33 22-11-2020, Saat: 17:43
Son Yorum: BroserBros
Filmin Yayınlanma Tarihi: 2019
San Francisco'daki Son Siyah Adam (The Last Black Man in San Francisco) - 2019 - TR+ORG - 1080P BroserBros 0 36 22-11-2020, Saat: 17:30
Son Yorum: BroserBros
Filmin Yayınlanma Tarihi: 2019
Ralph ve İnternet (Ralph Breaks the Internet) Türkçe Dublaj BLURAY m1080P İndir BroserBros 15 1,097 21-11-2020, Saat: 18:10
Son Yorum: miyaavc
Filmin Yayınlanma Tarihi: 2019
Beni Unutma (Remember Me) - 2019 - TR+ORG - 1080P BroserBros 0 57 21-11-2020, Saat: 16:14
Son Yorum: BroserBros

Hızlı Menü: