Filmbol Forum Film İndir BRRip XviD v Boyun Eğmez: Kefaret Yolu (Unbroken: 2) Türkçe Dublaj BRRip XviD İndir
Mega linklerinin şikayet edilmemesi için global erişime kapatıp sadece yorum yapanlara açıyoruz. Bu linkleri gizleme işlemini mecburen yapıyoruz ve yorum yapmanızın siteye değil size faydası vardır. Teşekürler yazmayı çok görüp, Random/Spam mesajlar atarak Mega linklerini açmaya çalışan kullanıcılara önce süresiz ban, devam ederse IP ban atacağız.
Filmbol'da moderatör olmak ister misiniz? Bizimle iletişime geçmek için tıklayın!
Boyun Eğmez: Kefaret Yolu (Unbroken: 2) Türkçe Dublaj BRRip XviD İndir
BroserBros
Boyun Eğmez: Kefaret Yolu (Unbroken: 2) Türkçe Dublaj BRRip XviD İndir
0
210
  • Derecelendirme: 0/5 - 0 oy
  • 1
  • 2
  • 3
  • 4
  • 5
Konuyu Okuyanlar:1 Ziyaretçi
Şuan Online!
Filmin Yayınlanma Tarihi: 2018 
WWW
Şuan Online!
BroserBros Kurucu Admin
*******
Admin








 Boyun Eğmez: Kefaret Yolu



Louis Zamperini Amerikalı bir uzun mesafe koşucusudur. ABD Olimpiyat Takımında ülkesini 1936'da Berlin'de düzenlenen Olimpiyat oyunlarında temsil eder. Dereceye girip madalya kazanamaz ama müthiş bir final performansı ortaya koyar. Öyle ki Adolf Hitler kendisiyle tanışmak ister. 4 yıl sonra Zamperini Tokyo'daki Olimpiyat oyunlarında favori isimlerden biridir. Fakat o seneki Olimpiyatlar II. Dünya Savaşı'nın patlak vermesiyle iptal edilir ve Zamperini savaşta gönüllü olarak görev alır. Pasifik'te geçirilen bir kaza sonrası iki silah arkadaşıyla hayatta kalmayı başarır ve 47 gün sürecek bir yaşam mücadelesi verirler. Ne var ki kendilerini kurtaranlar düşman taraf olan Japon Deniz Kuvvetleridir ve kurtardıkları savaş esirlerine işkence yapmaktan da geri kalmazlar...
Louis Zamperini'nin gerçek yaşam öyküsünün anlatıldığı ve Laura Hillenbrand'ın kaleme aldığı "Unbroken: A World War II Story of Survival, Resilience and Redemption" adlı kitaptan uyarlanan filmin yönetmenliğini ikinci yönetmenlik deneyimine imza atan Angelina Jolie üstleniyor.

Boyun Eğmez: Kefaret Yolu (2018) (Unbroken: Path to Redemption) Filmi Imdb'den 2,000 kişi tarafından oylandı ve 5,7 puan aldı. Bu film için editör puanı 6,0 olarak belirlendi. İyi Seyirler!

Teknik Detaylar

Kod :
General
Complete name                            : /root/Desktop/5/Boyun.Eğmez.Kefaret.Yolu.2018.BRRip.XViD.TR.Filmbol.avi
Format                                   : AVI
Format/Info                              : Audio Video Interleave
File size                                : 1.32 GiB
Duration                                 : 1h 38mn
Overall bit rate                         : 1 912 Kbps

Video
ID                                       : 0
Format                                   : MPEG-4 Visual
Format profile                           : Advanced [email protected]
Format settings, BVOP                    : 2
Format settings, QPel                    : No
Format settings, GMC                     : No warppoints
Format settings, Matrix                  : Default (MPEG)
Codec ID                                 : XVID
Codec ID/Hint                            : XviD
Duration                                 : 1h 38mn
Bit rate                                 : 1 771 Kbps
Width                                    : 720 pixels
Height                                   : 404 pixels
Display aspect ratio                     : 16:9
Frame rate                               : 23.976 (23976/1000) fps
Color space                              : YUV
Chroma subsampling                       : 4:2:0
Bit depth                                : 8 bits
Scan type                                : Progressive
Compression mode                         : Lossy
Bits/(Pixel*Frame)                       : 0.254
Stream size                              : 1.22 GiB (93%)
Writing library                          : XviD 64

Audio
ID                                       : 1
Format                                   : MPEG Audio
Format version                           : Version 1
Format profile                           : Layer 3
Mode                                     : Joint stereo
Codec ID                                 : 55
Codec ID/Hint                            : MP3
Duration                                 : 1h 38mn
Bit rate mode                            : Constant
Bit rate                                 : 128 Kbps
Channel(s)                               : 2 channels
Sampling rate                            : 48.0 KHz
Compression mode                         : Lossy
Stream size                              : 90.2 MiB (7%)
Alignment                                : Aligned on interleaves
Interleave, duration                     : 24 ms (0.58 video frame)

Film Detayları


 Boyun Eğmez: Kefaret Yolu

 Boyun Eğmez: Kefaret Yolu

 Boyun Eğmez: Kefaret Yolu


Film Fragmanı


Film Detayları

Brrip İndir

Uptobox ile indir

1Fichier ile indir

1Fichier'den İndiremiyor musun? Tıklayın!


Mega linki şuan da gizli. Kullanıma açmak için konuya yorum yapın ve ardından sayfayı yenileyin.

Mega


MediaFire ile indir



Konu ile Alakalı Benzer Konular
Konular Yazar Yorumlar Okunma Son Yorum
Filmin Yayınlanma Tarihi: 1972
Baba (The Godfather) - 1972 - TR - BRRip XviD | tt0068646 BroserBros 3 254 30 dakika önce
Son Yorum: Furkan61
Filmin Yayınlanma Tarihi: 1974
Baba 2 (The Godfather: Part II) - 1974 - TR - BRRip XviD | tt0071562 BroserBros 2 402 1 saat önce
Son Yorum: BroserBros
Filmin Yayınlanma Tarihi: 2008
VOL-i (WALL-E) - 2008 - TR - BRRip XviD | tt0910970 BroserBros 4 343 1 saat önce
Son Yorum: BroserBros
Filmin Yayınlanma Tarihi: 1990
Baba 3 (The Godfather: Part III) - 1990 - TR - BRRip XviD | tt0099674 BroserBros 3 286 2 saat önce
Son Yorum: Furkan61
Filmin Yayınlanma Tarihi: 1998
Armageddon (Armageddon) - 1998 - TR - BRRip XviD | tt0120591 BroserBros 1 266 4 saat önce
Son Yorum: BroserBros

Hızlı Menü: