Filmbol Forum Film İndir 720P v Boyun Eğmez Kefaret Yolu (Unbroken: 2) Türkçe Dublaj BLURAY 720P İndir
Mega linklerinin şikayet edilmemesi için global erişime kapatıp sadece yorum yapanlara açıyoruz. Bu linkleri gizleme işlemini mecburen yapıyoruz ve yorum yapmanızın siteye değil size faydası vardır. Teşekürler yazmayı çok görüp, Random/Spam mesajlar atarak Mega linklerini açmaya çalışan kullanıcılara önce süresiz ban, devam ederse IP ban atacağız.
Filmbol'da moderatör olmak ister misiniz? Bizimle iletişime geçmek için tıklayın!
Boyun Eğmez Kefaret Yolu (Unbroken: 2) Türkçe Dublaj BLURAY 720P İndir
BroserBros
Boyun Eğmez Kefaret Yolu (Unbroken: 2) Türkçe Dublaj BLURAY 720P İndir
1
252
  • Derecelendirme: 0/5 - 0 oy
  • 1
  • 2
  • 3
  • 4
  • 5
Konuyu Okuyanlar:1 Ziyaretçi
Şuan Online!
Filmin Yayınlanma Tarihi: 2018 
WWW
Şuan Online!
BroserBros Kurucu Admin
*******
Admin








 Boyun Eğmez: Kefaret Yolu



Louis Zamperini Amerikalı bir uzun mesafe koşucusudur. ABD Olimpiyat Takımında ülkesini 1936'da Berlin'de düzenlenen Olimpiyat oyunlarında temsil eder. Dereceye girip madalya kazanamaz ama müthiş bir final performansı ortaya koyar. Öyle ki Adolf Hitler kendisiyle tanışmak ister. 4 yıl sonra Zamperini Tokyo'daki Olimpiyat oyunlarında favori isimlerden biridir. Fakat o seneki Olimpiyatlar II. Dünya Savaşı'nın patlak vermesiyle iptal edilir ve Zamperini savaşta gönüllü olarak görev alır. Pasifik'te geçirilen bir kaza sonrası iki silah arkadaşıyla hayatta kalmayı başarır ve 47 gün sürecek bir yaşam mücadelesi verirler. Ne var ki kendilerini kurtaranlar düşman taraf olan Japon Deniz Kuvvetleridir ve kurtardıkları savaş esirlerine işkence yapmaktan da geri kalmazlar...
Louis Zamperini'nin gerçek yaşam öyküsünün anlatıldığı ve Laura Hillenbrand'ın kaleme aldığı "Unbroken: A World War II Story of Survival, Resilience and Redemption" adlı kitaptan uyarlanan filmin yönetmenliğini ikinci yönetmenlik deneyimine imza atan Angelina Jolie üstleniyor.

Boyun Eğmez: Kefaret Yolu (2018) (Unbroken: Path to Redemption) Filmi Imdb'den 2,000 kişi tarafından oylandı ve 5,7 puan aldı. Bu film için editör puanı 6,0 olarak belirlendi. İyi Seyirler!

Teknik Detaylar

Kod :
General
Unique ID                                : 15660258913343095773993267144720584088 (0xBC80E605BA6274BF99AAD814D770D98)
Complete name                            : /root/Desktop/5/Boyun.Eğmez.Kefaret.Yolu.2018.720p.BluRay.x264.TR.Filmbol.mkv
Format                                   : Matroska
Format version                           : Version 4 / Version 2
File size                                : 876 MiB
Duration                                 : 1h 38mn
Overall bit rate                         : 1 243 Kbps
Movie name                               : Boyun Eğmez: Kefaret Yolu (2018) - Filmbol.org
Encoded date                             : UTC 2020-01-27 08:24:01
Writing application                      : mkvmerge v35.0.0 ('All The Love In The World') 64-bit
Writing library                          : libebml v1.3.9 + libmatroska v1.5.2

Video
ID                                       : 1
Format                                   : AVC
Format/Info                              : Advanced Video Codec
Format profile                           : [email protected]
Format settings, CABAC                   : Yes
Format settings, ReFrames                : 4 frames
Codec ID                                 : V_MPEG4/ISO/AVC
Duration                                 : 1h 38mn
Bit rate                                 : 1 050 Kbps
Width                                    : 1 280 pixels
Height                                   : 714 pixels
Display aspect ratio                     : 16:9
Frame rate mode                          : Constant
Frame rate                               : 23.976 (24000/1001) fps
Color space                              : YUV
Chroma subsampling                       : 4:2:0
Bit depth                                : 8 bits
Scan type                                : Progressive
Bits/(Pixel*Frame)                       : 0.048
Stream size                              : 739 MiB (84%)
Title                                    : 720P - Filmbol.org
Writing library                          : x264 core 152
Encoding settings                        : cabac=1 / ref=4 / deblock=1:-1:-1 / analyse=0x3:0x133 / me=umh / subme=9 / psy=1 / psy_rd=1.00:0.15 / mixed_ref=1 / me_range=24 / chroma_me=1 / trellis=2 / 8x8dct=1 / cqm=0 / deadzone=21,11 / fast_pskip=0 / chroma_qp_offset=-3 / threads=12 / lookahead_threads=1 / sliced_threads=0 / nr=0 / decimate=1 / interlaced=0 / bluray_compat=0 / constrained_intra=0 / bframes=3 / b_pyramid=2 / b_adapt=2 / b_bias=0 / direct=3 / weightb=1 / open_gop=0 / weightp=2 / keyint=250 / keyint_min=23 / scenecut=40 / intra_refresh=0 / rc_lookahead=60 / rc=2pass / mbtree=1 / bitrate=1050 / ratetol=1.0 / qcomp=0.60 / qpmin=0 / qpmax=69 / qpstep=4 / cplxblur=20.0 / qblur=0.5 / vbv_maxrate=31250 / vbv_bufsize=31250 / nal_hrd=none / filler=0 / ip_ratio=1.40 / aq=1:1.00
Default                                  : Yes
Forced                                   : No

Audio
ID                                       : 2
Format                                   : AC-3
Format/Info                              : Audio Coding 3
Mode extension                           : CM (complete main)
Format settings, Endianness              : Big
Codec ID                                 : A_AC3
Duration                                 : 1h 38mn
Bit rate mode                            : Constant
Bit rate                                 : 192 Kbps
Channel(s)                               : 2 channels
Channel positions                        : Front: L R
Sampling rate                            : 48.0 KHz
Frame rate                               : 31.250 fps (1536 spf)
Compression mode                         : Lossy
Stream size                              : 135 MiB (15%)
Title                                    : Türke - Filmbol.org
Language                                 : Turkish
Default                                  : Yes
Forced                                   : No

Film Detayları


 Boyun Eğmez: Kefaret Yolu

 Boyun Eğmez: Kefaret Yolu

 Boyun Eğmez: Kefaret Yolu

[/fragman]

Film Detayları

Mini 720P İndir

Uptobox ile indir

1Fichier ile indir

1Fichier'den İndiremiyor musun? Tıklayın!


Mega linki şuan da gizli. Kullanıma açmak için konuya yorum yapın ve ardından sayfayı yenileyin.

Mega


MediaFire ile indir

Şuan Offine!
Şuan Offine!
draydinozkan Süper Üye
***
Super Üye

  • Konular0
  • Mesajlar57
  • Rep puanı 0
Teşekkürler


Konu ile Alakalı Benzer Konular
Konular Yazar Yorumlar Okunma Son Yorum
Filmin Yayınlanma Tarihi: 2020
Her Zaman Şeytan (The Devil All the Time) - 2020 - TR+ORG - 720P | tt7395114 TheSteeL 0 24 11 saat önce
Son Yorum: TheSteeL
Filmin Yayınlanma Tarihi: 2020
Baba Aranıyor (Se busca papá) - 2020 - TR+ORG - 720P | tt12721188 TheSteeL 0 23 11 saat önce
Son Yorum: TheSteeL
Filmin Yayınlanma Tarihi: 2019
Beyaz Kentin Sessizliği (El silencio de la ciudad blanca) - 2019 - TR+ORG - 720P | tt8393332 BroserBros 1 255 , Saat: 15:38
Son Yorum: BroserBros
Filmin Yayınlanma Tarihi: 2019
Frankenstein: Ölümsüzlerin Savaşı (I, Frankenstein) - 2014 - TR+ORG - 720P | tt1418377 BroserBros 2 263 , Saat: 15:29
Son Yorum: BroserBros
Filmin Yayınlanma Tarihi: 2002
Akıl Oyunları (A Beautiful Mind) - 2001 - TR+ORG - 720P | tt0268978 BroserBros 1 246 , Saat: 15:12
Son Yorum: BroserBros

Hızlı Menü: