Filmbol Forum Film İndir BRRip XviD v Bohemian Rhapsody (2018) Türkçe Dublaj Brrip Xvid İndir
Filmbol'da moderatör olmak ister misiniz? Bizimle iletişime geçmek için tıklayın!
Bohemian Rhapsody (2018) Türkçe Dublaj Brrip Xvid İndir
BroserBros
Bohemian Rhapsody (2018) Türkçe Dublaj Brrip Xvid İndir
1
390
  • Derecelendirme: 0/5 - 0 oy
  • 1
  • 2
  • 3
  • 4
  • 5
Konuyu Okuyanlar:1 Ziyaretçi
Şuan Online!
Filmin Yayınlanma Tarihi: 2018 
Şuan Online!
BroserBros Kurucu Admin
*******
Admin

indirme türü


Bulut + Premium

Vizyon Tarihi


02 Kasım 2018

Boyutlar


1,62

diller


[TR]

altyazilar


KISIM [Eklenebilir]

Video Format: Avi


Audio Video Interleave (.AVI)

Video Detay


MPEG-4, 1598Kbps, 1,50GB

imdb puanı


8,0 / 10,0 / 380,000

süre


134 dakika

Ses Kodek: MP3


MPEG-1 Audio Layer III (MP3)

Ses Detay


128 Kbps, 2 Kanal, 123Mb

Editör Puanı


8,8

Genislik Yukseklik


720-302

sürüm


h263 | Brrip Xvid




Bohemian Rhapsody


Film Detayları

Bohemian Rhapsody, Queen grubuna, müziklerine, klişelere meydan okuyan ve kuralları yıkarak dünyanın en sevilen sanatçılarından biri haline gelen ikonik solistlerine bir saygı duruşu niteliği taşıyor. Film, simgeleşmiş şarkıları ve devrimci sesiyle grubun meteorik yükselişine, Mercury'nin yaşam tarzının kontrolden çıkması ile çıkan iç çatışmaya ve yaşamını tehdit eden hastalığına rağmen Mercury'nin rock müzik tarihinin en büyük performanslarından birinde gruba liderlik ettiği Live Aid konserinin arifesinde muzaffer birleşme sürecine yayılıyor. Bu süreçte de, her zaman bir aile gibi olan ve günümüzde dışlanmışlara, hayalperestlere ve müzikseverlere ilham vermeye devam eden bir grubun mirasını süslüyor.
 
Bohemian Rhapsody Filmi Imdb'den 380,000 kişi tarafından oylandı ve 8,0 puan aldı. Bu film için editör puanı 8,8 olarak belirlendi. İyi Seyirler!


Teknik Detaylar

Kod :
General
Complete name                            : Bohemian.Rhapsody.2018.BRRip.XviD.TR.Filmbol.avi
Format                                   : AVI
Format/Info                              : Audio Video Interleave
File size                                : 1.64 GiB
Duration                                 : 2h 14mn
Overall bit rate                         : 1 739 Kbps

Video
ID                                       : 0
Format                                   : MPEG-4 Visual
Format profile                           : Simple@L5
Format settings, BVOP                    : No
Format settings, QPel                    : No
Format settings, GMC                     : No warppoints
Format settings, Matrix                  : Default (H.263)
Codec ID                                 : XVID
Codec ID/Hint                            : XviD
Duration                                 : 2h 14mn
Bit rate                                 : 1 598 Kbps
Width                                    : 720 pixels
Height                                   : 302 pixels
Display aspect ratio                     : 2.40:1
Frame rate                               : 23.976 fps
Color space                              : YUV
Chroma subsampling                       : 4:2:0
Bit depth                                : 8 bits
Scan type                                : Progressive
Compression mode                         : Lossy
Bits/(Pixel*Frame)                       : 0.307
Stream size                              : 1.50 GiB (92%)
Writing library                          : Lavc58.35.100

Audio
ID                                       : 1
Format                                   : MPEG Audio
Format version                           : Version 1
Format profile                           : Layer 3
Mode                                     : Joint stereo
Mode extension                           : MS Stereo
Codec ID                                 : 55
Codec ID/Hint                            : MP3
Duration                                 : 2h 14mn
Bit rate mode                            : Constant
Bit rate                                 : 128 Kbps
Channel(s)                               : 2 channels
Sampling rate                            : 48.0 KHz
Compression mode                         : Lossy
Stream size                              : 123 MiB (7%)
Alignment                                : Aligned on interleaves
Interleave, duration                     : 24 ms (0.58 video frame)



Film Detayları


Bohemian Rhapsody


Film Fragmanı


Film Detayları

Brrip İndir


LetsUpload ile indir


Mega ile indir

noOJ

MediaFire ile indir

Şuan Offine!
Şuan Offine!
sifiriki02 Yeni Üye
*
Üye

  • Konular0
  • Mesajlar2
  • Rep puanı 0
teşekkürler


Konu ile Alakalı Benzer Konular
Konular Yazar Yorumlar Okunma Son Yorum
Filmin Yayınlanma Tarihi: 2020
Deathstroke Şövalyeler ve Ejderhalar (Deathstroke Knights & Dragons: The Movie) - 2020 - TR - BRRip XviD BroserBros 0 35 23-11-2020, Saat: 18:30
Son Yorum: BroserBros
Filmin Yayınlanma Tarihi: 2019
15 Dakika Savaş (L'intervention) - 2019 - TR - BRRip XviD BroserBros 0 34 23-11-2020, Saat: 17:42
Son Yorum: BroserBros
Filmin Yayınlanma Tarihi: 2020
Sürprizli Gece (The Sleepover) - 2020 - TR - BRRip XviD BroserBros 0 36 23-11-2020, Saat: 16:18
Son Yorum: BroserBros
Filmin Yayınlanma Tarihi: 2020
Feride (Feride) - 2020 - TR - BRRip XviD BroserBros 0 37 22-11-2020, Saat: 17:58
Son Yorum: BroserBros
Filmin Yayınlanma Tarihi: 2019
Gel Babacığına (Come to Daddy) - 2019 - TR - BRRip XviD BroserBros 0 32 22-11-2020, Saat: 17:43
Son Yorum: BroserBros

Hızlı Menü: