Filmbol Forum Film İndir 1080P v Bohemian Rhapsody (2018) Türkçe Dublaj BLURAY m1080P İndir
Mega linklerinin şikayet edilmemesi için global erişime kapatıp sadece yorum yapanlara açıyoruz. Bu linkleri gizleme işlemini mecburen yapıyoruz ve yorum yapmanızın siteye değil size faydası vardır. Teşekürler yazmayı çok görüp, Random/Spam mesajlar atarak Mega linklerini açmaya çalışan kullanıcılara önce süresiz ban, devam ederse IP ban atacağız.
Filmbol'da moderatör olmak ister misiniz? Bizimle iletişime geçmek için tıklayın!
Bohemian Rhapsody (2018) Türkçe Dublaj BLURAY m1080P İndir
BroserBros
Bohemian Rhapsody (2018) Türkçe Dublaj BLURAY m1080P İndir
3
567
  • Derecelendirme: 0/5 - 0 oy
  • 1
  • 2
  • 3
  • 4
  • 5
Konuyu Okuyanlar:1 Ziyaretçi
Şuan Online!
Filmin Yayınlanma Tarihi: 2018 
WWW
Şuan Online!
BroserBros Kurucu Admin
*******
Admin





Ses Kodek: AC3


Audio Coding 3 (AC3)






Bohemian Rhapsody



Teknik Detaylar

Kod :
General
Complete name                            : Bohemian.Rhapsody.2018.m1080p.BLURAY.x264.TR.Filmbol.mkv
Format                                   : Matroska
Format version                           : Version 4 / Version 2
File size                                : 2.39 GiB
Duration                                 : 2h 14mn
Overall bit rate                         : 2 538 Kbps
Movie name                               : Bohemian Rhapsody (2018) - Filmbol.org
Encoded date                             : UTC 2019-08-20 13:48:53
Writing application                      : mkvmerge v35.0.0 ('All The Love In The World') 64-bit
Writing library                          : libebml v1.3.9 + libmatroska v1.5.2

Video
ID                                       : 1
Format                                   : AVC
Format/Info                              : Advanced Video Codec
Format profile                           : [email protected]
Format settings, CABAC                   : Yes
Format settings, ReFrames                : 4 frames
Codec ID                                 : V_MPEG4/ISO/AVC
Duration                                 : 2h 14mn
Bit rate                                 : 2 150 Kbps
Width                                    : 1 920 pixels
Height                                   : 800 pixels
Display aspect ratio                     : 2.40:1
Frame rate mode                          : Constant
Frame rate                               : 23.976 (24000/1001) fps
Color space                              : YUV
Chroma subsampling                       : 4:2:0
Bit depth                                : 8 bits
Scan type                                : Progressive
Bits/(Pixel*Frame)                       : 0.058
Stream size                              : 2.02 GiB (85%)
Title                                    : 1080P - Filmbol.org
Writing library                          : x264 core 157
Default                                  : Yes
Forced                                   : No

Audio
ID                                       : 2
Format                                   : AC-3
Format/Info                              : Audio Coding 3
Mode extension                           : CM (complete main)
Format settings, Endianness              : Big
Codec ID                                 : A_AC3
Duration                                 : 2h 14mn
Bit rate mode                            : Constant
Bit rate                                 : 384 Kbps
Channel(s)                               : 6 channels
Channel positions                        : Front: L C R, Side: L R, LFE
Sampling rate                            : 48.0 KHz
Frame rate                               : 31.250 fps (1536 spf)
Compression mode                         : Lossy
Stream size                              : 370 MiB (15%)
Title                                    : Türkçe - Filmbol.org
Language                                 : Turkish
Default                                  : Yes
Forced                                   : No

Text
ID                                       : 3
Format                                   : UTF-8
Codec ID                                 : S_TEXT/UTF8
Codec ID/Info                            : UTF-8 Plain Text
Duration                                 : 2h 13mn
Bit rate                                 : 1 bps
Count of elements                        : 48
Stream size                              : 1.73 KiB (0%)
Title                                    : KISIM
Language                                 : Turkish
Default                                  : Yes
Forced                                   : Yes



Film Detayları



Film Fragmanı


Film Detayları

Mini 1080P İndir



Mega linki şuan da gizli. Kullanıma açmak için konuya yorum yapın ve ardından sayfayı yenileyin.

Mega


f0x1

MediaFire ile indir

Google Drive linki şuan da gizli. Kullanıma açmak için konuya yorum yapın ve ardından sayfayı yenileyin.

Google Drive


Şuan Offine!
Şuan Offine!
gmazi658 Süper Üye
***
Super Üye

  • Konular0
  • Mesajlar25
  • Rep puanı 0
........

........
Şuan Offine!
Şuan Offine!
acy Yeni Üye
*
Üye

  • Konular0
  • Mesajlar4
  • Rep puanı 0
teşekkürler
Şuan Offine!
Şuan Offine!
dejavu Uzman Üye
**
Uzman Üye

  • Konular2
  • Mesajlar18
  • Rep puanı 0
Queen i bu filmle sevdim


Konu ile Alakalı Benzer Konular
Konular Yazar Yorumlar Okunma Son Yorum
Filmin Yayınlanma Tarihi: 2018
Parti Kraliçesi (Life of The Party) Türkçe Dublaj m1080P İndir BroserBros 1 690 04-03-2021, Saat: 20:29
Son Yorum: windowsxp
Filmin Yayınlanma Tarihi: 2007
Harry Potter ve Zümrüdüanka Yoldaşlığı (2007) Türkçe Dublaj BLURAY m1080P İndir BroserBros 18 1,444 04-03-2021, Saat: 14:38
Son Yorum: bjk1001
Filmin Yayınlanma Tarihi: 2005
Harry Potter ve Ateş Kadehi (Goblet of Fire) Türkçe Dublaj BLURAY 1080P İndir BroserBros 30 2,893 04-03-2021, Saat: 13:08
Son Yorum: bjk1001
Filmin Yayınlanma Tarihi: 2014
Madagaskar Penguenleri (Penguins of Madagascar) Türkçe Dublaj BLURAY 1080P İndir BroserBros 3 716 03-03-2021, Saat: 22:51
Son Yorum: Omertrans505
Filmin Yayınlanma Tarihi: 2002
Harry Potter ve Sırlar Odası (Chamber of Secrets) Türkçe Dublaj BLURAY 1080P İndir BroserBros 25 3,010 02-03-2021, Saat: 22:36
Son Yorum: bjk1001

Hızlı Menü: