Filmbol Forum Film İndir BRRip XviD v Bleach: Burîchu (2018) Türkçe Dublaj BRRip XviD İndir
Filmbol'da moderatör olmak ister misiniz? Bizimle iletişime geçmek için tıklayın!
Bleach: Burîchu (2018) Türkçe Dublaj BRRip XviD İndir
BroserBros
Bleach: Burîchu (2018) Türkçe Dublaj BRRip XviD İndir
0
326
  • Derecelendirme: 0/5 - 0 oy
  • 1
  • 2
  • 3
  • 4
  • 5
Konuyu Okuyanlar:1 Ziyaretçi
Şuan Online!
Filmin Yayınlanma Tarihi: 2018 
Şuan Online!
BroserBros Kurucu Admin
*******
Admin

Vizyon Tarihi


20 Haziran 2018

imdb puanı


6,4 / 10,000

süre


108 dakika

Editör Puanı


6,0

Video Format: Avi


Audio Video Interleave (.AVI)

Ses Kodek: MP3


MPEG-1 Audio Layer III (MP3)

sürüm


h263 | BRRip Xvid

Boyutlar


1,10



Bleach: Burîchu



Film Detayları

Bleach, 2001 yılından beri yayınlanan Japonya yapımı bir manga çizgi roman serisidir. 2004 yılından itibaren animeye uyarlanmıştır.
Bleach anime serisi, bir lise öğrencisi olan Ichigo Kurosaki'nin maceralarını anlatır. Ichigo'nun ruhları görebilme gibi özel bir yeteneği vardır. Bir gün Ichigo, yatak odasında tuhaf bir yabancının olduğunu farkeder. Bu yabancı bir şinigami (ruh biçici, ölüm tanrısı) olan Rukia Kuchiki'dir. Rukia, Ichigo'nun kendini görebilmesine çok şaşırır. Bu esnada ortaya bir hollow (şeytani ruh) çıkar. Rukia, Ichigo'yu korumaya çalışırken ciddi bir şekilde yaralanır. Rukia, hollow'la dövüşebilmesi için güçlerinin yarısını Ichigo'ya vermeye karar verir fakat Ichigo istemsizce Rukia'nın tüm güçlerine sahip olur ve şeytani ruhu kolayca yokeder. Ertesi gün Rukia, güçlerini geri kazanabilmek ve şinigamilik görevini devam ettirebilmek için Ichigo'nun sınıfına transfer olur. Ichigo ve Rukia'nın şinigamilik maceraları başlar.

Bleach (Burîchu) Filmi Imdb'den 10,000 kişi tarafından oylandı ve 6,4 puan aldı. Bu film için editör puanı 6,0 olarak belirlendi. İyi Seyirler!


Teknik Detaylar


Kod :
General
Complete name                            : /root/Desktop/8/Bleach.2018.NFRip.XViD.TR.Filmbol.avi
Format                                   : AVI
Format/Info                              : Audio Video Interleave
File size                                : 1.10 GiB
Duration                                 : 1h 48mn
Overall bit rate                         : 1 443 Kbps

Video
ID                                       : 0
Format                                   : MPEG-4 Visual
Format profile                           : Advanced Simple@L5
Format settings, BVOP                    : 2
Format settings, QPel                    : No
Format settings, GMC                     : No warppoints
Format settings, Matrix                  : Default (MPEG)
Codec ID                                 : XVID
Codec ID/Hint                            : XviD
Duration                                 : 1h 48mn
Bit rate                                 : 1 302 Kbps
Width                                    : 720 pixels
Height                                   : 404 pixels
Display aspect ratio                     : 16:9
Frame rate                               : 23.976 (23976/1000) fps
Color space                              : YUV
Chroma subsampling                       : 4:2:0
Bit depth                                : 8 bits
Scan type                                : Progressive
Compression mode                         : Lossy
Bits/(Pixel*Frame)                       : 0.187
Stream size                              : 1 012 MiB (90%)
Writing library                          : XviD 64

Audio
ID                                       : 1
Format                                   : MPEG Audio
Format version                           : Version 1
Format profile                           : Layer 3
Mode                                     : Joint stereo
Mode extension                           : MS Stereo
Codec ID                                 : 55
Codec ID/Hint                            : MP3
Duration                                 : 1h 48mn
Bit rate mode                            : Constant
Bit rate                                 : 128 Kbps
Channel(s)                               : 2 channels
Sampling rate                            : 48.0 KHz
Compression mode                         : Lossy
Stream size                              : 99.5 MiB (9%)
Alignment                                : Aligned on interleaves
Interleave, duration                     : 24 ms (0.58 video frame)
Writing library                          : LAME3.99.5

Film Detayları


Bleach: Burîchu

Bleach: Burîchu

Bleach: Burîchu


Film Fragmanı


Film Detayları

Brrip İndir



Uptobox ile indir

1Fichier ile indir

1Fichier'den İndiremiyor musun? Tıklayın!


Mega ile indir

MediaFire ile indir



Konu ile Alakalı Benzer Konular
Konular Yazar Yorumlar Okunma Son Yorum
Filmin Yayınlanma Tarihi: 2019
Luce (Luce) - 2019 - TR - BRRip XviD BroserBros 0 16 8 saat önce
Son Yorum: BroserBros
Filmin Yayınlanma Tarihi: 2020
Aşka İnan (I Still Believe) - 2020 - TR - BRRip XviD BroserBros 0 15 9 saat önce
Son Yorum: BroserBros
Filmin Yayınlanma Tarihi: 2018
Döndüm Ben (Yerli) - 2018 - TR - BRRip XviD BroserBros 0 36 27-11-2020, Saat: 18:40
Son Yorum: BroserBros
Filmin Yayınlanma Tarihi: 2018
Bana Bir Soygun Yaz 2 (Yerli) - 2018 - TR - BRRip XviD BroserBros 0 27 27-11-2020, Saat: 18:26
Son Yorum: BroserBros
Filmin Yayınlanma Tarihi: 2007
Amerikan Pastası 6: Beta Evi (American Pie: Beta House) - 2007 - TR - BRRip XviD BroserBros 2 247 27-11-2020, Saat: 14:31
Son Yorum: tayyib5731

Hızlı Menü: