Filmbol Forum Film İndir 720P v Blade Runner 2049: Bıçak Sırtı (Blade Runner 2049) Türkçe Dublaj BLURAY 720P İndir
Mega linklerinin şikayet edilmemesi için global erişime kapatıp sadece yorum yapanlara açıyoruz. Bu linkleri gizleme işlemini mecburen yapıyoruz ve yorum yapmanızın siteye değil size faydası vardır. Teşekürler yazmayı çok görüp, Random/Spam mesajlar atarak Mega linklerini açmaya çalışan kullanıcılara önce süresiz ban, devam ederse IP ban atacağız.
Filmbol'da moderatör olmak ister misiniz? Bizimle iletişime geçmek için tıklayın!
Blade Runner 2049: Bıçak Sırtı (Blade Runner 2049) Türkçe Dublaj BLURAY 720P İndir
BroserBros
Blade Runner 2049: Bıçak Sırtı (Blade Runner 2049) Türkçe Dublaj BLURAY 720P İndir
2
351
  • Derecelendirme: 0/5 - 0 oy
  • 1
  • 2
  • 3
  • 4
  • 5
Konuyu Okuyanlar:1 Ziyaretçi
Şuan Online!
Filmin Yayınlanma Tarihi: 2017 
WWW
Şuan Online!
BroserBros Kurucu Admin
*******
Admin








 Blade Runner 2049: Bıçak Sırtı



Blade Runner 2049'da ilk filmdeki hikayenin üzerinden geçen 30 yıl sonrası anlatılmaktadır. Los Angeles Polis Departmanı'nda görev yapan Memur K, toplum yaşamını kaosa sokacak olan ve uzun zamandır saklı kalan bir sırrı açığa çıkartır. Bir felaketi önleyebilmesi için eski ödül avcısı Rick Deckard'ı bulup ondan bazı sorularına yanıt alması şarttır.
Başrollerinde Ryan Gosling ve Rick Deckard rolünde Harrison Ford'un boy göstereceği filmin kadrosunda Jared Leto, Robin Wright, Ana de Armas, Carla Juri, Mackenzie Davis, Barkhad Abdi, David Dastmalchian, Hiam Abbass, Lennie James ve Dave Bautista'yı bulunduran devam halkasının yönetmenliğini Denis Villeneuve üstleniyor. Filmin senaryosunda ise Hampton Fancher ve Michael Green imzası var.

Blade Runner 2049: Bıçak Sırtı (2017) (Blade Runner 2049) Filmi Imdb'den 420,000 kişi tarafından oylandı ve 8,0 puan aldı. Bu film için editör puanı 8,5 olarak belirlendi. İyi Seyirler!

Teknik Detaylar

Kod :
General
Unique ID                                : 188164232994708074485058751963856949469 (0x8D8F1CF2BA0D3EFF28B684481E40D0DD)
Complete name                            : /root/Desktop/8/Blade.Runner.2049.2017.720p.BluRay.x264.TR.Filmbol.mkv
Format                                   : Matroska
Format version                           : Version 4 / Version 2
File size                                : 1.47 GiB
Duration                                 : 2h 43mn
Overall bit rate                         : 1 290 Kbps
Movie name                               : Blade Runner 2049 - Filmbol.org
Encoded date                             : UTC 2020-01-27 09:08:55
Writing application                      : mkvmerge v35.0.0 ('All The Love In The World') 64-bit
Writing library                          : libebml v1.3.9 + libmatroska v1.5.2

Video
ID                                       : 1
Format                                   : AVC
Format/Info                              : Advanced Video Codec
Format profile                           : [email protected]
Format settings, CABAC                   : Yes
Format settings, ReFrames                : 5 frames
Codec ID                                 : V_MPEG4/ISO/AVC
Duration                                 : 2h 43mn
Bit rate                                 : 648 Kbps
Width                                    : 1 280 pixels
Height                                   : 534 pixels
Display aspect ratio                     : 2.40:1
Frame rate mode                          : Constant
Frame rate                               : 23.976 (24000/1001) fps
Color space                              : YUV
Chroma subsampling                       : 4:2:0
Bit depth                                : 8 bits
Scan type                                : Progressive
Bits/(Pixel*Frame)                       : 0.040
Stream size                              : 758 MiB (50%)
Title                                    : 720P - Filmbol.org
Writing library                          : x264 core 152 r2851kMod ba24899
Encoding settings                        : cabac=1 / ref=5 / deblock=1:-1:-1 / analyse=0x3:0x113 / me=umh / subme=8 / psy=1 / fade_compensate=0.00 / psy_rd=1.00:0.00 / mixed_ref=1 / me_range=16 / chroma_me=1 / trellis=1 / 8x8dct=1 / cqm=0 / deadzone=21,11 / fast_pskip=0 / chroma_qp_offset=-2 / threads=12 / lookahead_threads=2 / sliced_threads=0 / nr=0 / decimate=1 / interlaced=0 / bluray_compat=0 / constrained_intra=0 / bframes=3 / b_pyramid=2 / b_adapt=2 / b_bias=0 / direct=3 / weightb=1 / open_gop=0 / weightp=2 / keyint=230 / keyint_min=23 / scenecut=40 / intra_refresh=0 / rc_lookahead=50 / rc=crf / mbtree=1 / crf=23.0000 / qcomp=0.60 / qpmin=0 / qpmax=69 / qpstep=4 / vbv_maxrate=10000 / vbv_bufsize=10000 / crf_max=0.0 / nal_hrd=none / filler=0 / ip_ratio=1.40 / aq=1:1.00
Language                                 : English
Default                                  : Yes
Forced                                   : Yes

Audio
ID                                       : 2
Format                                   : AC-3
Format/Info                              : Audio Coding 3
Mode extension                           : CM (complete main)
Format settings, Endianness              : Big
Codec ID                                 : A_AC3
Duration                                 : 2h 43mn
Bit rate mode                            : Constant
Bit rate                                 : 640 Kbps
Channel(s)                               : 6 channels
Channel positions                        : Front: L C R, Side: L R, LFE
Sampling rate                            : 48.0 KHz
Frame rate                               : 31.250 fps (1536 spf)
Compression mode                         : Lossy
Stream size                              : 748 MiB (50%)
Title                                    : Turkce - Filmbol.org
Default                                  : Yes
Forced                                   : No

Film Detayları


 Blade Runner 2049: Bıçak Sırtı

 Blade Runner 2049: Bıçak Sırtı

 Blade Runner 2049: Bıçak Sırtı

[/fragman]

Film Detayları

Mini 720P İndir

Uptobox ile indir

1Fichier ile indir

1Fichier'den İndiremiyor musun? Tıklayın!


Mega linki şuan da gizli. Kullanıma açmak için konuya yorum yapın ve ardından sayfayı yenileyin.

Mega


MediaFire ile indir

Şuan Offine!
Şuan Offine!
agresif Uzman Üye
**
Uzman Üye

  • Konular0
  • Mesajlar20
  • Rep puanı 0
teşekkürler
Şuan Offine!
Şuan Offine!
vago Uzman Üye
**
Uzman Üye

  • Konular0
  • Mesajlar7
  • Rep puanı 0
teşşekkürler


Konu ile Alakalı Benzer Konular
Konular Yazar Yorumlar Okunma Son Yorum
Filmin Yayınlanma Tarihi: 2020
Her Zaman Şeytan (The Devil All the Time) - 2020 - TR+ORG - 720P | tt7395114 TheSteeL 0 31 , Saat: 21:36
Son Yorum: TheSteeL
Filmin Yayınlanma Tarihi: 2020
Baba Aranıyor (Se busca papá) - 2020 - TR+ORG - 720P | tt12721188 TheSteeL 0 31 , Saat: 21:12
Son Yorum: TheSteeL
Filmin Yayınlanma Tarihi: 2019
Beyaz Kentin Sessizliği (El silencio de la ciudad blanca) - 2019 - TR+ORG - 720P | tt8393332 BroserBros 1 257 , Saat: 15:38
Son Yorum: BroserBros
Filmin Yayınlanma Tarihi: 2019
Frankenstein: Ölümsüzlerin Savaşı (I, Frankenstein) - 2014 - TR+ORG - 720P | tt1418377 BroserBros 2 264 , Saat: 15:29
Son Yorum: BroserBros
Filmin Yayınlanma Tarihi: 2002
Akıl Oyunları (A Beautiful Mind) - 2001 - TR+ORG - 720P | tt0268978 BroserBros 1 249 , Saat: 15:12
Son Yorum: BroserBros

Hızlı Menü: