Hoşgeldin, Ziyaretçi: Giriş Yap Üye Ol


stats
Adblock'u kapattıysanız tıklayın.
Hoşgeldiniz!
Filmbol'u tercih ettiğiniz için teşekkürler, ancak ablock kullanarak devam edemezsiniz.
Merak etmeyin. Heryerden ardı ardına çıkan reklamlar görmeyeceksiniz :)

Sadece site içi 1 reklam göreceksin ve bu site gezintini etkilemeyecek.
Konuyu Oyla:
  • Derecelendirme: 0/5 - 0 oy
  • 1
  • 2
  • 3
  • 4
  • 5
Biz (Us) Türkçe Dublaj Brrip Xvid İndir
#1
Filmin Yayınlanma Tarihi: 2019 

indirme türü


Bulut + Premium

vizyon tarihi


22 Mart 2019

Boyutlar


1,00

diller


[TR]

altyazilar


Yok [Eklenebilir]

Video Format: Avi


Audio Video Interleave (.AVI)

Video Detay


MPEG-4, 1078 Kbps, 0,89GB

imdb puanı


7,0 / 10,0 / 130,000

süre


116 dakika

Ses Kodek: MP3


MPEG-1 Audio Layer III (MP3)

Ses Detay


128 Kbps, 2 Kanal, 107Mb

Editör Puanı


7,3

Genislik Yukseklik


720-302

sürüm


h263 | Brrip Xvid



Film Detayları

Bir aile çocuklar ile birlikte sakin bir plaj tatiline çıkar. Ancak tatil pekte istedikleri gibi gitmez. Tıpkı kendilerine benzeyen bir aile ile karşılaşırlar. Aslına bakarsak aile bire bir kendilerine benzemektedir. Bu durumdan ürkerler ama bana bu kişilerin normal bir aile olabileceğini tahmin eden baba onlara yaklaşır ancak tahmin ettiği gibi çıkmaz. 

Biz (Us) Filmi Imdb'den 130,000 kişi tarafından oylandı ve 7,0 puan aldı. Bu film için editör puanı 7,3 olarak belirlendi. İyi Seyirler!


Teknik Detaylar



Kod:
General
Complete name                            : Biz.2019.BRRip.XviD.TR.Filmbol.avi
Format                                   : AVI
Format/Info                              : Audio Video Interleave
File size                                : 1 016 MiB
Duration                                 : 1h 56mn
Overall bit rate                         : 1 219 Kbps

Video
ID                                       : 0
Format                                   : MPEG-4 Visual
Format profile                           : Simple@L5
Format settings, BVOP                    : No
Format settings, QPel                    : No
Format settings, GMC                     : No warppoints
Format settings, Matrix                  : Default (H.263)
Codec ID                                 : XVID
Codec ID/Hint                            : XviD
Duration                                 : 1h 56mn
Bit rate                                 : 1 078 Kbps
Width                                    : 720 pixels
Height                                   : 302 pixels
Display aspect ratio                     : 2.40:1
Frame rate                               : 23.976 fps
Color space                              : YUV
Chroma subsampling                       : 4:2:0
Bit depth                                : 8 bits
Scan type                                : Progressive
Compression mode                         : Lossy
Bits/(Pixel*Frame)                       : 0.207
Stream size                              : 898 MiB (88%)
Writing library                          : Lavc58.35.100

Audio
ID                                       : 1
Format                                   : MPEG Audio
Format version                           : Version 1
Format profile                           : Layer 3
Mode                                     : Joint stereo
Mode extension                           : MS Stereo
Codec ID                                 : 55
Codec ID/Hint                            : MP3
Duration                                 : 1h 56mn
Bit rate mode                            : Constant
Bit rate                                 : 128 Kbps
Channel(s)                               : 2 channels
Sampling rate                            : 48.0 KHz
Compression mode                         : Lossy
Stream size                              : 107 MiB (10%)
Alignment                                : Aligned on interleaves
Interleave, duration                     : 24 ms (0.58 video frame)


Film Detayları


Biz

Biz

Biz

Biz

Biz



Film Fragmanı


Film Detayları

Brrip İndir


Turbobit İle İndir

Uptobox ile indir

Tusfiles ile indir

Filerio ile indir

LetsUpload ile indir

MegaUp ile indir

Filmbol'da aşağıdaki linkler sadece üyelere sunulur. Ayrıca bu linklerde link kısaltma servisleri kullanılmaz, linke tek tık ile reklamsız erişirsiniz. Konu'ya yorum yapın ve sayfayı yenileyin. Reklamsız linkler (en az 3 en fazla 5 link) açılmış olacaktır. Not: Filmbol'a üye olmak tamamen ücretsizdir, en az 3 link kuralı 01.07.2019 tarihinden sonraki paylaşımlar için geçerlidir. Ancak çoğu film için en az bir premium link her zaman bulunur.

Mega

Dosyaco

Dosyaupload

Mediafire

Google Drive
 
Cevapla
#2
Harrikka
 
Cevapla
  


Konu ile Alakalı Benzer Konular
Konular Yazar Yorumlar Okunma Son Yorum
Filmin Yayınlanma Tarihi: 2018 Climax (2018) Türkçe Dublaj Brrip Xvid İndir BroserBros 0 79 10-08-2019, Saat: 19:34
Son Yorum: BroserBros
Filmin Yayınlanma Tarihi: 2018 Mandy (2018) Türkçe Dublaj Brrip Xvid İndir BroserBros 0 58 06-08-2019, Saat: 17:34
Son Yorum: BroserBros
Filmin Yayınlanma Tarihi: 2019 Lanetli Gözyaşları (The Curse of La Llorona) Türkçe Dublaj Brrip Xvid İndir BroserBros 0 99 22-07-2019, Saat: 19:48
Son Yorum: BroserBros
Filmin Yayınlanma Tarihi: 2019 The Silence (2019) Türkçe Dublaj Brrip Xvid İndir BroserBros 0 86 17-07-2019, Saat: 18:47
Son Yorum: BroserBros
Filmin Yayınlanma Tarihi: 2019 Hayvan Mezarlığı (Pet Samatary) Türkçe Dublaj Brrip Xvid İndir BroserBros 0 116 11-07-2019, Saat: 19:11
Son Yorum: BroserBros

Hızlı Menü:


Şu anda bu konuyu okuyanlar: 2 Ziyaretçi