Filmbol Forum Film İndir 1080P v Bir Zamanlar... Hollywood'da (Once Upon a Time... in Hollywood) - 2019 - TR+ORG - 1080P
Mega linklerinin şikayet edilmemesi için global erişime kapatıp sadece yorum yapanlara açıyoruz. Bu linkleri gizleme işlemini mecburen yapıyoruz ve yorum yapmanızın siteye değil size faydası vardır. Teşekürler yazmayı çok görüp, Random/Spam mesajlar atarak Mega linklerini açmaya çalışan kullanıcılara önce süresiz ban, devam ederse IP ban atacağız.
Filmbol'da moderatör olmak ister misiniz? Bizimle iletişime geçmek için tıklayın!
Bir Zamanlar... Hollywood'da (Once Upon a Time... in Hollywood) - 2019 - TR+ORG - 1080P
BroserBros
Bir Zamanlar... Hollywood'da (Once Upon a Time... in Hollywood) - 2019 - TR+ORG - 1080P
1
247
  • Derecelendirme: 0/5 - 0 oy
  • 1
  • 2
  • 3
  • 4
  • 5
Konuyu Okuyanlar:1 Ziyaretçi
Şuan Online!
Filmin Yayınlanma Tarihi: 2019 
WWW
Şuan Online!
BroserBros Kurucu Admin
*******
Admin








 Bir Zamanlar... Hollywood'da



Bir Zamanlar... Hollywood'da, hit bir dizide oynamış bir erkek TV aktörünün film sektörüne girmeye çalışması anlatılıyor. Rick Dalton, bir televizyon filmi aktörüdür. Dalton'ın başarılı bir western dizisi bulunmaktadır. Ancak Rick, kendini televizyondan uzaklaştırıp film sektörüne adım atmak istemektedir. Onun dublörü olan Cliff Booth ise bu konuda ona katılmaktadır. Ancak ikilinin yaşlarının ilerlemesiyle birlikte Hollywood'taki şansları da azalmaktadır. Hollywood'un yeni gözdelerinden olan Sharon Tate ise Rick'in komşusudur. Ancak Hollywood'un ışıltılarla dolu ve pervasız akışı, Tate'in ve dört arkadaşının Charles Manson tarikatı tarafından katledilmesiyle kesilecektir...

Bir Zamanlar... Hollywood'da (2019) (Once Upon a Time... in Hollywood) Filmi Imdb'den 480,000 kişi tarafından oylandı ve 7,7 puan aldı. Bu film için editör puanı 8,8 olarak belirlendi. İyi Seyirler!

Teknik Detaylar

Kod :
General
Unique ID                                : 198661975615803672645288868455563976811 (0x9574E79EAD2B2117E33AD46EAEA8E06B)
Complete name                            : /root/Desktop/1/Bir.Zamanlar.Hollywoodda.2019.1080p.BluRay.x264.TR.ENG.Filmbol.mkv
Format                                  : Matroska
Format version                          : Version 4 / Version 2
File size                                : 2.80 GiB
Duration                                : 2h 41mn
Overall bit rate                        : 2 486 Kbps
Movie name                              : Bir Zamanlar... Hollywood'da - Once Upon a Time... in Hollywood - 2019 | Filmbol.org
Encoded date                            : UTC 2020-06-10 10:38:45
Writing application                      : mkvmerge v8.8.0 ('Wind at my back') 64bit
Writing library                          : libebml v1.3.3 + libmatroska v1.4.4

Video
ID                                      : 1
Format                                  : AVC
Format/Info                              : Advanced Video Codec
Format profile                          : [email protected]
Format settings, CABAC                  : Yes
Format settings, ReFrames                : 4 frames
Codec ID                                : V_MPEG4/ISO/AVC
Duration                                : 2h 41mn
Bit rate                                : 2 100 Kbps
Width                                    : 1 920 pixels
Height                                  : 800 pixels
Display aspect ratio                    : 2.40:1
Frame rate mode                          : Constant
Frame rate                              : 23.976 (24000/1001) fps
Color space                              : YUV
Chroma subsampling                      : 4:2:0
Bit depth                                : 8 bits
Scan type                                : Progressive
Bits/(Pixel*Frame)                      : 0.057
Stream size                              : 2.37 GiB (84%)
Title                                    : Filmbol.org
Writing library                          : x264 core 158
Encoding settings                        : cabac=1 / ref=4 / deblock=1:-1:-1 / analyse=0x3:0x133 / me=umh / subme=9 / psy=1 / psy_rd=1.00:0.15 / mixed_ref=1 / me_range=24 / chroma_me=1 / trellis=2 / 8x8dct=1 / cqm=0 / deadzone=21,11 / fast_pskip=0 / chroma_qp_offset=-3 / threads=18 / lookahead_threads=1 / sliced_threads=0 / nr=0 / decimate=1 / interlaced=0 / bluray_compat=0 / constrained_intra=0 / bframes=3 / b_pyramid=2 / b_adapt=2 / b_bias=0 / direct=3 / weightb=1 / open_gop=0 / weightp=2 / keyint=250 / keyint_min=23 / scenecut=40 / intra_refresh=0 / rc_lookahead=60 / rc=2pass / mbtree=1 / bitrate=2100 / ratetol=1.0 / qcomp=0.60 / qpmin=0 / qpmax=69 / qpstep=4 / cplxblur=20.0 / qblur=0.5 / vbv_maxrate=31250 / vbv_bufsize=31250 / nal_hrd=none / filler=0 / ip_ratio=1.40 / aq=1:1.00
Default                                  : Yes
Forced                                  : No

Audio #1
ID                                      : 2
Format                                  : AC-3
Format/Info                              : Audio Coding 3
Mode extension                          : CM (complete main)
Format settings, Endianness              : Big
Codec ID                                : A_AC3
Duration                                : 2h 41mn
Bit rate mode                            : Constant
Bit rate                                : 192 Kbps
Channel(s)                              : 2 channels
Channel positions                        : Front: L R
Sampling rate                            : 48.0 KHz
Frame rate                              : 31.250 fps (1536 spf)
Compression mode                        : Lossy
Stream size                              : 222 MiB (8%)
Title                                    : Filmbol.org
Language                                : Turkish
Default                                  : Yes
Forced                                  : No

Audio #2
ID                                      : 3
Format                                  : AC-3
Format/Info                              : Audio Coding 3
Mode extension                          : CM (complete main)
Format settings, Endianness              : Big
Codec ID                                : A_AC3
Duration                                : 2h 41mn
Bit rate mode                            : Constant
Bit rate                                : 192 Kbps
Channel(s)                              : 2 channels
Channel positions                        : Front: L R
Sampling rate                            : 48.0 KHz
Frame rate                              : 31.250 fps (1536 spf)
Compression mode                        : Lossy
Stream size                              : 222 MiB (8%)
Title                                    : Filmbol.org
Language                                : English
Default                                  : No
Forced                                  : No

Text
ID                                      : 4
Format                                  : UTF-8
Codec ID                                : S_TEXT/UTF8
Codec ID/Info                            : UTF-8 Plain Text
Duration                                : 2h 39mn
Bit rate                                : 55 bps
Count of elements                        : 1770
Stream size                              : 64.3 KiB (0%)
Title                                    : Filmbol.org
Language                                : Turkish
Default                                  : No
Forced                                  : No

Film Detayları


 Bir Zamanlar... Hollywood'da

 Bir Zamanlar... Hollywood'da

 Bir Zamanlar... Hollywood'da


Film Fragmanı


Film Detayları

Uptobox ile indir

1Fichier ile indir

1Fichier'den İndiremiyor musun? Tıklayın!


Mega linki şuan da gizli. Kullanıma açmak için konuya yorum yapın ve ardından sayfayı yenileyin.

Mega


Bunun için üzgünüz ancak, bu linke sadece premium üyeler erişebilir.

Filmbol Cloud

Şuan Online!
Şuan Online!
BroserBros Kurucu Admin
*******
Admin

22.01.2021 Yönetici Notu:

Kırık linkler kontrol edildi, kaldırıldı ve yenilendi. Tüm linkler tamamen çalışır durumda.


Konu ile Alakalı Benzer Konular
Konular Yazar Yorumlar Okunma Son Yorum
Filmin Yayınlanma Tarihi: 2016
Senden Önce Ben (Me Before You) (2016) Türkçe Dublaj 1080P İndir BroserBros 2 2,939 1 saat önce
Son Yorum: mussa
Filmin Yayınlanma Tarihi: 2015
Ex Machina (2015) Türkçe Dublaj 1080P İndir BroserBros 13 3,310 1 saat önce
Son Yorum: mussa
Filmin Yayınlanma Tarihi: 2018
Venom: Zehirli Öfke (Venom) - 2018 - TR+ORG - 1080P | tt1270797 BroserBros 45 4,746 1 saat önce
Son Yorum: BroserBros
Filmin Yayınlanma Tarihi: 2016
Batman v Superman: Adaletin Şafağı (Batman v Superman: Dawn of Justice) - 2016 - TR+ORG - 1080P | tt2975590 BroserBros 3 2,856 1 saat önce
Son Yorum: BroserBros
Filmin Yayınlanma Tarihi: 2020
Yarını Yokmuş Gibi (Palm Springs) - 2020 - TR+ORG - 1080P | tt9484998 TheSteeL 0 20 , Saat: 01:18
Son Yorum: TheSteeL

Hızlı Menü: