Filmbol Forum Film İndir BRRip XviD v Bir Zamanlar... Hollywood'da (Once Upon a Time... in Hollywood) - 2019 - TR - BRRip XviD
Mega linklerinin şikayet edilmemesi için global erişime kapatıp sadece yorum yapanlara açıyoruz. Bu linkleri gizleme işlemini mecburen yapıyoruz ve yorum yapmanızın siteye değil size faydası vardır. Teşekürler yazmayı çok görüp, Random/Spam mesajlar atarak Mega linklerini açmaya çalışan kullanıcılara önce süresiz ban, devam ederse IP ban atacağız.
Filmbol'da moderatör olmak ister misiniz? Bizimle iletişime geçmek için tıklayın!
Bir Zamanlar... Hollywood'da (Once Upon a Time... in Hollywood) - 2019 - TR - BRRip XviD
BroserBros
Bir Zamanlar... Hollywood'da (Once Upon a Time... in Hollywood) - 2019 - TR - BRRip XviD
1
178
  • Derecelendirme: 0/5 - 0 oy
  • 1
  • 2
  • 3
  • 4
  • 5
Konuyu Okuyanlar:1 Ziyaretçi
Şuan Online!
Filmin Yayınlanma Tarihi: 2019 
WWW
Şuan Online!
BroserBros Kurucu Admin
*******
Admin








 Bir Zamanlar... Hollywood'da



Bir Zamanlar... Hollywood'da, hit bir dizide oynamış bir erkek TV aktörünün film sektörüne girmeye çalışması anlatılıyor. Rick Dalton, bir televizyon filmi aktörüdür. Dalton'ın başarılı bir western dizisi bulunmaktadır. Ancak Rick, kendini televizyondan uzaklaştırıp film sektörüne adım atmak istemektedir. Onun dublörü olan Cliff Booth ise bu konuda ona katılmaktadır. Ancak ikilinin yaşlarının ilerlemesiyle birlikte Hollywood'taki şansları da azalmaktadır. Hollywood'un yeni gözdelerinden olan Sharon Tate ise Rick'in komşusudur. Ancak Hollywood'un ışıltılarla dolu ve pervasız akışı, Tate'in ve dört arkadaşının Charles Manson tarikatı tarafından katledilmesiyle kesilecektir...

Bir Zamanlar... Hollywood'da (2019) (Once Upon a Time... in Hollywood) Filmi Imdb'den 480,000 kişi tarafından oylandı ve 7,7 puan aldı. Bu film için editör puanı 8,8 olarak belirlendi. İyi Seyirler!

Teknik Detaylar

Kod :
General
Complete name                            : /root/Desktop/1/Bir.Zamanlar.Hollywoodda.2019.BRRip.XviD.TR.Filmbol.avi
Format                                  : AVI
Format/Info                              : Audio Video Interleave
File size                                : 1.80 GiB
Duration                                : 2h 41mn
Overall bit rate                        : 1 592 Kbps

Video
ID                                      : 0
Format                                  : MPEG-4 Visual
Format profile                          : [email protected]
Format settings, BVOP                    : No
Format settings, QPel                    : No
Format settings, GMC                    : No warppoints
Format settings, Matrix                  : Default (H.263)
Codec ID                                : XVID
Codec ID/Hint                            : XviD
Duration                                : 2h 41mn
Bit rate                                : 1 451 Kbps
Width                                    : 720 pixels
Height                                  : 302 pixels
Display aspect ratio                    : 2.40:1
Frame rate                              : 23.976 fps
Color space                              : YUV
Chroma subsampling                      : 4:2:0
Bit depth                                : 8 bits
Scan type                                : Progressive
Compression mode                        : Lossy
Bits/(Pixel*Frame)                      : 0.278
Stream size                              : 1.64 GiB (91%)
Writing library                          : Lavc58.35.100

Audio
ID                                      : 1
Format                                  : MPEG Audio
Format version                          : Version 1
Format profile                          : Layer 3
Mode                                    : Joint stereo
Mode extension                          : MS Stereo
Codec ID                                : 55
Codec ID/Hint                            : MP3
Duration                                : 2h 41mn
Bit rate mode                            : Constant
Bit rate                                : 128 Kbps
Channel(s)                              : 2 channels
Sampling rate                            : 48.0 KHz
Compression mode                        : Lossy
Stream size                              : 148 MiB (8%)
Alignment                                : Aligned on interleaves
Interleave, duration                    : 24 ms (0.58 video frame)

Film Detayları


 Bir Zamanlar... Hollywood'da

 Bir Zamanlar... Hollywood'da

 Bir Zamanlar... Hollywood'da


Film Fragmanı


Film Detayları


Uptobox ile indir

1Fichier ile indir

1Fichier'den İndiremiyor musun? Tıklayın!


Mega linki şuan da gizli. Kullanıma açmak için konuya yorum yapın ve ardından sayfayı yenileyin.

Mega


Bunun için üzgünüz ancak, bu linke sadece premium üyeler erişebilir.

Filmbol Cloud

Şuan Online!
Şuan Online!
BroserBros Kurucu Admin
*******
Admin

22.01.2021 Yönetici Notu:

Kırık linkler kontrol edildi, kaldırıldı ve yenilendi. Tüm linkler tamamen çalışır durumda.


Konu ile Alakalı Benzer Konular
Konular Yazar Yorumlar Okunma Son Yorum
Filmin Yayınlanma Tarihi: 2020
Yarını Yokmuş Gibi (Palm Springs) - 2020 - TR - BRRip XviD | tt9484998 TheSteeL 0 6 7 dakika önce
Son Yorum: TheSteeL
Filmin Yayınlanma Tarihi: 2020
Polis (Police) - 2020 - TR - BRRip XviD | tt9850344 TheSteeL 0 6 20 dakika önce
Son Yorum: TheSteeL
Filmin Yayınlanma Tarihi: 2019
Midway (Midway) - 2019 - TR - BRRip XviD BroserBros 1 110 7 saat önce
Son Yorum: Furkan61
Filmin Yayınlanma Tarihi: 2016
X-Men: Apocalypse (2016) Türkçe Dublaj Brrip-Xvid İndir BroserBros 2 2,382 04-03-2021, Saat: 22:37
Son Yorum: Furkan61
Filmin Yayınlanma Tarihi: 2002
Akıl Oyunları (A Beautiful Mind) - 2001 - TR - BRRip XviD | tt0268978 BroserBros 2 249 04-03-2021, Saat: 18:03
Son Yorum: Furkan61

Hızlı Menü: