Filmbol Forum Film İndir 720P v Bir Aşk İki Hayat (2019) - 2019 - TR - 720P
Moderatör Alımları Başladı! Başvuru yapmak için tıklayın.
Filmbol Premium'da %50'e varan indirim fırsatı!
Bir Aşk İki Hayat (2019) - 2019 - TR - 720P
BroserBros
Bir Aşk İki Hayat (2019) - 2019 - TR - 720P
0
91
  • Derecelendirme: 0/5 - 0 oy
  • 1
  • 2
  • 3
  • 4
  • 5
Konuyu Okuyanlar:1 Ziyaretçi
Şuan Online!
Filmin Yayınlanma Tarihi: 2019 
Şuan Online!
BroserBros Kurucu Admin
*******
Admin

Vizyon Tarihi


15 Şubat 2019

imdb puanı


6,2 / 1,500

süre


106 dakika

Editör Puanı


6,8 / 10

Video Format: Mkv


Matroska (.MKV)

Ses Kodek: AC3


Audio Coding 3 (AC3)

sürüm


x264 | 720P | BLURAY

Boyutlar


1,39 GB



 Bir Aşk İki Hayat



Verdiği kararların sonuçları pekte iç açıcı olmayan bir adamın umutları artık tükenmeye başlar. Bir gün köpeğini gezdirmeye çıktığında bir kadına rastlar ve bu durum hayatının dönüm noktasıdır...

Bir Aşk İki Hayat (2019) (2019) Filmi Imdb'den 1,500 kişi tarafından oylandı ve 6,2 puan aldı. Bu film için editör puanı 6,8 olarak belirlendi. İyi Seyirler!

Teknik Detaylar

Kod :
General
Unique ID                                : 275591641014907308912173633826778450635 (0xCF5504F6701522237814A42E2DDF0ACB)
Complete name                            : /root/Desktop/3/Bir.Aşk.İki.Hayat.2019.720p.WEB-DL.x264.Yerli.Filmbol.mkv
Format                                  : Matroska
Format version                          : Version 4 / Version 2
File size                                : 1.39 GiB
Duration                                : 1h 46mn
Overall bit rate                        : 1 866 Kbps
Encoded date                            : UTC 2020-04-09 21:09:02
Writing application                      : mkvmerge v34.0.0 ('Sight and Seen') 64-bit
Writing library                          : libebml v1.3.7 + libmatroska v1.5.0

Video
ID                                      : 1
Format                                  : AVC
Format/Info                              : Advanced Video Codec
Format profile                          : Main@L3.1
Format settings, CABAC                  : Yes
Format settings, ReFrames                : 2 frames
Codec ID                                : V_MPEG4/ISO/AVC
Duration                                : 1h 46mn
Bit rate                                : 1 672 Kbps
Width                                    : 1 280 pixels
Height                                  : 720 pixels
Display aspect ratio                    : 16:9
Frame rate mode                          : Constant
Frame rate                              : 25.000 fps
Color space                              : YUV
Chroma subsampling                      : 4:2:0
Bit depth                                : 8 bits
Scan type                                : Progressive
Bits/(Pixel*Frame)                      : 0.073
Stream size                              : 1.24 GiB (90%)
Default                                  : Yes
Forced                                  : No

Audio
ID                                      : 2
Format                                  : AC-3
Format/Info                              : Audio Coding 3
Mode extension                          : CM (complete main)
Format settings, Endianness              : Big
Codec ID                                : A_AC3
Duration                                : 1h 46mn
Bit rate mode                            : Constant
Bit rate                                : 192 Kbps
Channel(s)                              : 2 channels
Channel positions                        : Front: L R
Sampling rate                            : 48.0 KHz
Frame rate                              : 31.250 fps (1536 spf)
Compression mode                        : Lossy
Stream size                              : 146 MiB (10%)
Language                                : Turkish
Default                                  : Yes
Forced                                  : No

Film Detayları


 Bir Aşk İki Hayat

 Bir Aşk İki Hayat

 Bir Aşk İki Hayat


Film Fragmanı


Film Detayları

Uptobox ile indir

1Fichier ile indir

1Fichier'den İndiremiyor musun? Tıklayın!


Mega ile indir

Bunun için üzgünüz ancak, bu linke sadece premium üyeler erişebilir.

Filmbol Cloud



Konu ile Alakalı Benzer Konular
Konular Yazar Yorumlar Okunma Son Yorum
Filmin Yayınlanma Tarihi: 2014
Lego Filmi (The Lego Movie) - 2014 - TR+ORG - 720P BroserBros 0 19 11 saat önce
Son Yorum: BroserBros
Filmin Yayınlanma Tarihi: 2014
Nuh: Büyük Tufan (Noah) - 2014 - TR+ORG - 720P BroserBros 0 20 11 saat önce
Son Yorum: BroserBros
Filmin Yayınlanma Tarihi: 2014
Yarının Sınırında (Edge of Tomorrow) - 2014 - TR+ORG - 720P BroserBros 0 39 , Saat: 20:41
Son Yorum: BroserBros
Filmin Yayınlanma Tarihi: 2014
300: Bir İmparatorluğun Yükselişi (300: Rise of an Empire - 300 Spartalı 2) - 2014 - TR+ORG - 720P BroserBros 0 61 04-06-2020, Saat: 13:39
Son Yorum: BroserBros
Filmin Yayınlanma Tarihi: 2020
Kirpi Sonic (Sonic the Hedgehog) - 2020 - TR+ORG - 720P BroserBros 0 63 04-06-2020, Saat: 12:57
Son Yorum: BroserBros

Hızlı Menü: