Filmbol Forum Film İndir 1080P v Bir Aşk İki Hayat (2019) - 2019 - TR - 1080P
Bir Aşk İki Hayat (2019) - 2019 - TR - 1080P
BroserBros
Bir Aşk İki Hayat (2019) - 2019 - TR - 1080P
0
115
  • Derecelendirme: 0/5 - 0 oy
  • 1
  • 2
  • 3
  • 4
  • 5
Konuyu Okuyanlar:1 Ziyaretçi
Şuan Online!
Filmin Yayınlanma Tarihi: 2019 
Şuan Online!
BroserBros Kurucu Admin
*******
Admin

Vizyon Tarihi


15 Şubat 2019

imdb puanı


6,2 / 1,500

süre


106 dakika

Editör Puanı


6,8 / 10

Video Format: Mkv


Matroska (.MKV)

Ses Kodek: AC3


Audio Coding 3 (AC3)

sürüm


x264 | 1080P | BLURAY

Boyutlar


1,89 GB



 Bir Aşk İki Hayat



Verdiği kararların sonuçları pekte iç açıcı olmayan bir adamın umutları artık tükenmeye başlar. Bir gün köpeğini gezdirmeye çıktığında bir kadına rastlar ve bu durum hayatının dönüm noktasıdır...

Bir Aşk İki Hayat (2019) (2019) Filmi Imdb'den 1,500 kişi tarafından oylandı ve 6,2 puan aldı. Bu film için editör puanı 6,8 olarak belirlendi. İyi Seyirler!

Teknik Detaylar

Kod :
General
Unique ID                                : 259875609199352044122352286070311913815 (0xC38238C515F741FD56A00AA6816A8957)
Complete name                            : /root/Desktop/3/Bir.Aşk.İki.Hayat.2019.1080p.WEB-DL.x264.Yerli.Filmbol.mkv
Format                                  : Matroska
Format version                          : Version 4 / Version 2
File size                                : 1.89 GiB
Duration                                : 1h 46mn
Overall bit rate                        : 2 544 Kbps
Encoded date                            : UTC 2020-04-09 20:12:59
Writing application                      : mkvmerge v34.0.0 ('Sight and Seen') 64-bit
Writing library                          : libebml v1.3.7 + libmatroska v1.5.0

Video
ID                                      : 1
Format                                  : AVC
Format/Info                              : Advanced Video Codec
Format profile                          : High@L4
Format settings, CABAC                  : Yes
Format settings, ReFrames                : 3 frames
Codec ID                                : V_MPEG4/ISO/AVC
Duration                                : 1h 46mn
Bit rate                                : 2 351 Kbps
Width                                    : 1 920 pixels
Height                                  : 1 080 pixels
Display aspect ratio                    : 16:9
Frame rate mode                          : Constant
Frame rate                              : 25.000 fps
Color space                              : YUV
Chroma subsampling                      : 4:2:0
Bit depth                                : 8 bits
Scan type                                : Progressive
Bits/(Pixel*Frame)                      : 0.045
Stream size                              : 1.75 GiB (92%)
Default                                  : Yes
Forced                                  : No

Audio
ID                                      : 2
Format                                  : AC-3
Format/Info                              : Audio Coding 3
Mode extension                          : CM (complete main)
Format settings, Endianness              : Big
Codec ID                                : A_AC3
Duration                                : 1h 46mn
Bit rate mode                            : Constant
Bit rate                                : 192 Kbps
Channel(s)                              : 2 channels
Channel positions                        : Front: L R
Sampling rate                            : 48.0 KHz
Frame rate                              : 31.250 fps (1536 spf)
Compression mode                        : Lossy
Stream size                              : 146 MiB (8%)
Language                                : Turkish
Default                                  : Yes
Forced                                  : No

Film Detayları


 Bir Aşk İki Hayat

 Bir Aşk İki Hayat

 Bir Aşk İki Hayat


Film Fragmanı


Film Detayları

Uptobox ile indir

1Fichier ile indir

1Fichier'den İndiremiyor musun? Tıklayın!


Mega ile indir

Bunun için üzgünüz ancak, bu linke sadece premium üyeler erişebilir.

Filmbol Cloud



Konu ile Alakalı Benzer Konular
Konular Yazar Yorumlar Okunma Son Yorum
Filmin Yayınlanma Tarihi: 2014
Transformers: Kayıp Çağ (Transformers: Age of Extinction) - 2014 - TR+ORG - 1080P BroserBros 0 24 , Saat: 23:16
Son Yorum: BroserBros
Filmin Yayınlanma Tarihi: 2019
Queen & Slim (Queen ve Slim) - 2019 - TR+ORG - 1080P BroserBros 0 21 , Saat: 22:54
Son Yorum: BroserBros
Filmin Yayınlanma Tarihi: 2015
Minyonlar (Minions) - 2015 - TR+ORG - 1080P BroserBros 0 19 , Saat: 22:35
Son Yorum: BroserBros
Filmin Yayınlanma Tarihi: 2014
Herkül: Özgürlük Savaşçısı (Hercules) - 2014 - TR+ORG - 1080P BroserBros 0 17 , Saat: 18:15
Son Yorum: BroserBros
Filmin Yayınlanma Tarihi: 2018
Mamma Mia! Yeniden Başlıyoruz (Mamma Mia! Here We Go Again) - 2018 - TR+ORG - 1080P BroserBros 0 46 01-06-2020, Saat: 15:59
Son Yorum: BroserBros

Hızlı Menü: