Hoşgeldin, Ziyaretçi: Giriş Yap Üye Ol


Konuyu Oyla:
  • Derecelendirme: 0/5 - 0 oy
  • 1
  • 2
  • 3
  • 4
  • 5
Bilinmeze Yolculuk (Approaching the Unknown) Türkçe Dublaj m1080P İndir
#1
Filmin Yayınlanma Tarihi: 2016 

indirme türü


Bulut + Premium

vizyon tarihi


03 Haziran 2016

Boyutlar


1,37GB

diller


[TR]

altyazilar


Yok [Eklenebilir]

Video Format: Mkv


Matroska (.MKV)

Video Detay


MPEG-4, 1907 Kbps, 1,20 GB

imdb puanı


4,8 / 10,0 / 5,000

süre


90 dakika

Ses Kodek: AC3


Audio Coding 3 (AC3)

Ses Detay


224 Kbps, 2 Kanal, 145 Mb

rarsifresi


filmbol.org

Editör Puanı


5,0

Genislik Yukseklik


1916x1076

sürüm


x264 | WEB-DL m1080P




Film Detayları

Astronot William Stanaforth Mars'a gitmeye hazırlanan bir astronottur. Ondan önceki astronotlar gibi o da uzayı keşfetme ve Mars'ta yaşam bulabilme ümidini taşımaktadır. Ancak o da tıpkı her tek kişilik görevin olduğu gibi kendi görevinin de zorluklarıyla karşılacaktır. Mars'ta yapayalnız bir adam olmak sandığından çok daha zorlayıcı bir ağırlığı da beraberinde getirir.

Yönetmen koltuğunda Mark Elijah Rosenberg'in oturduğu filmin senaryosu da yöetmenin elinden çıkma. Filmin başrollerini ise Mark Strong, Luke Wilson, Sanaa Lathan ve Anders Danielsen Lie üstleniyor.


Teknik Detaylar

Kod:
General
Format                                   : Matroska
Format version                           : Version 4 / Version 2
File size                                : 1.37 GiB
Duration                                 : 1h 30mn
Overall bit rate                         : 2 174 Kbps

Video
ID                                       : 1
Format                                   : AVC
Format/Info                              : Advanced Video Codec
Format profile                           : Main@L4.0
Format settings, CABAC                   : Yes
Format settings, ReFrames                : 2 frames
Codec ID                                 : V_MPEG4/ISO/AVC
Duration                                 : 1h 30mn
Bit rate                                 : 1 907 Kbps
Width                                    : 1 916 pixels
Height                                   : 1 076 pixels
Display aspect ratio                     : 16:9
Frame rate mode                          : Constant
Frame rate                               : 23.976 fps
Color space                              : YUV
Chroma subsampling                       : 4:2:0
Bit depth                                : 8 bits
Scan type                                : Progressive
Bits/(Pixel*Frame)                       : 0.039
Stream size                              : 1.20 GiB (88%)
Title                                    : m1080P - Filmbol.org
Language                                 : English
Default                                  : Yes
Forced                                   : No

Audio
ID                                       : 2
Format                                   : AC-3
Format/Info                              : Audio Coding 3
Mode extension                           : CM (complete main)
Format settings, Endianness              : Big
Codec ID                                 : A_AC3
Duration                                 : 1h 30mn
Bit rate mode                            : Constant
Bit rate                                 : 224 Kbps
Channel(s)                               : 2 channels
Channel positions                        : Front: L R
Sampling rate                            : 48.0 KHz
Bit depth                                : 16 bits
Compression mode                         : Lossy
Stream size                              : 145 MiB (10%)
Title                                    : Türkçe - Filmbol.org
Language                                 : Turkish
Default                                  : Yes
Forced                                   : No




Film Detayları


Bilinmeze Yolculuk

Bilinmeze Yolculuk

Bilinmeze Yolculuk

Bilinmeze Yolculuk

Bilinmeze Yolculuk


Film Fragmanı


Film Detayları

Mini 1080P İndir


Turbobit İle İndir

Mega ile indir

Uptobox ile indir

Mypcloud ile indir

 
Alinti
  


Hızlı Menü:


Şu anda bu konuyu okuyanlar: 1 Ziyaretçi