Filmbol Forum Film İndir FHD - FULL HD v Beni Unutma (Remember Me) - 2019 - TR+ORG - FHD - x264
Filmbol'da moderatör olmak ister misiniz? Bizimle iletişime geçmek için tıklayın!
Beni Unutma (Remember Me) - 2019 - TR+ORG - FHD - x264
BroserBros
Beni Unutma (Remember Me) - 2019 - TR+ORG - FHD - x264
0
67
  • Derecelendirme: 0/5 - 0 oy
  • 1
  • 2
  • 3
  • 4
  • 5
Konuyu Okuyanlar:2 Ziyaretçi
Şuan Offine!
Filmin Yayınlanma Tarihi: 2019 
Şuan Offine!
BroserBros Kurucu Admin
*******
Admin

Vizyon Tarihi


2019

imdb puanı


5,6 / 500

süre


78 dakika

Editör Puanı


4,0 / 10

Video Format: Mkv


Matroska (.MKV)

Ses Kodek: AC3


Audio Coding 3 (AC3)

sürüm


x264 | WEB-DL

Boyutlar


3,32 GB



 Beni Unutma



Eskiden aşık olduğunu bir kişinin Alzheimer hastalığına yakalandığını duyunca önceden yapamadığı birlikteliği hazır her şey unutulmuşken tekrarlamaya karar verir.

Beni Unutma (2019) (Remember Me) Filmi Imdb'den 500 kişi tarafından oylandı ve 5,6 puan aldı. Bu film için editör puanı 4,0 olarak belirlendi. İyi Seyirler!

Teknik Detaylar

Kod :
General
Unique ID                                : 334639709239977327795987066626448904657 (0xFBC1437F435B856CE82D99DF720D51D1)
Complete name                            : /root/Desktop/2/Beni.Unutma.2019.FHD.WEB-DL.x264.TR.ENG.Filmbol.mkv
Format                                  : Matroska
Format version                          : Version 4 / Version 2
File size                                : 3.32 GiB
Duration                                : 1h 28mn
Overall bit rate                        : 5 336 Kbps
Movie name                              : Beni Unutma - Remember Me - 2019 | Filmbol.org
Encoded date                            : UTC 2020-11-20 10:38:19
Writing application                      : mkvmerge v8.8.0 ('Wind at my back') 64bit
Writing library                          : libebml v1.3.3 + libmatroska v1.4.4

Video
ID                                      : 1
Format                                  : AVC
Format/Info                              : Advanced Video Codec
Format profile                          : High@L4
Format settings, CABAC                  : Yes
Format settings, ReFrames                : 5 frames
Codec ID                                : V_MPEG4/ISO/AVC
Duration                                : 1h 28mn
Bit rate                                : 4 566 Kbps
Width                                    : 1 916 pixels
Height                                  : 804 pixels
Display aspect ratio                    : 2.40:1
Frame rate mode                          : Constant
Frame rate                              : 23.976 (23976/1000) fps
Color space                              : YUV
Chroma subsampling                      : 4:2:0
Bit depth                                : 8 bits
Scan type                                : Progressive
Bits/(Pixel*Frame)                      : 0.124
Stream size                              : 2.84 GiB (86%)
Title                                    : Beni Unutma - Remember me - 2019 | Filmbol.org
Language                                : English
Default                                  : Yes
Forced                                  : No
Color range                              : Limited
Color primaries                          : BT.709
Transfer characteristics                : BT.709
Matrix coefficients                      : BT.709

Audio #1
ID                                      : 2
Format                                  : AC-3
Format/Info                              : Audio Coding 3
Mode extension                          : CM (complete main)
Format settings, Endianness              : Big
Codec ID                                : A_AC3
Duration                                : 1h 28mn
Bit rate mode                            : Constant
Bit rate                                : 384 Kbps
Channel(s)                              : 6 channels
Channel positions                        : Front: L C R, Side: L R, LFE
Sampling rate                            : 48.0 KHz
Frame rate                              : 31.250 fps (1536 spf)
Compression mode                        : Lossy
Delay relative to video                  : -42ms
Stream size                              : 244 MiB (7%)
Title                                    : Beni Unutma - Remember me - 2019 | Filmbol.org
Language                                : Turkish
Default                                  : Yes
Forced                                  : No

Audio #2
ID                                      : 3
Format                                  : AC-3
Format/Info                              : Audio Coding 3
Mode extension                          : CM (complete main)
Format settings, Endianness              : Big
Codec ID                                : A_AC3
Duration                                : 1h 28mn
Bit rate mode                            : Constant
Bit rate                                : 384 Kbps
Channel(s)                              : 6 channels
Channel positions                        : Front: L C R, Side: L R, LFE
Sampling rate                            : 48.0 KHz
Frame rate                              : 31.250 fps (1536 spf)
Compression mode                        : Lossy
Delay relative to video                  : -42ms
Stream size                              : 244 MiB (7%)
Title                                    : Beni Unutma - Remember me - 2019 | Filmbol.org
Language                                : English
Default                                  : No
Forced                                  : No

Text #1
ID                                      : 4
Format                                  : UTF-8
Codec ID                                : S_TEXT/UTF8
Codec ID/Info                            : UTF-8 Plain Text
Duration                                : 1h 15mn
Bit rate                                : 1 bps
Count of elements                        : 23
Stream size                              : 731 Bytes (0%)
Title                                    : Beni Unutma - Remember me - 2019 | Filmbol.org
Language                                : Turkish
Default                                  : Yes
Forced                                  : Yes

Text #2
ID                                      : 5
Format                                  : UTF-8
Codec ID                                : S_TEXT/UTF8
Codec ID/Info                            : UTF-8 Plain Text
Duration                                : 1h 22mn
Bit rate                                : 61 bps
Count of elements                        : 1179
Stream size                              : 37.3 KiB (0%)
Title                                    : Beni Unutma - Remember me - 2019 | Filmbol.org
Language                                : Turkish
Default                                  : No
Forced                                  : No

Film Detayları


 Beni Unutma

 Beni Unutma

 Beni Unutma


Film Fragmanı


Film Detayları

Uptobox ile indir

1Fichier ile indir

1Fichier'den İndiremiyor musun? Tıklayın!


Mega ile indir

Bunun için üzgünüz ancak, bu linke sadece premium üyeler erişebilir.

Filmbol Cloud



Konu ile Alakalı Benzer Konular
Konular Yazar Yorumlar Okunma Son Yorum
Filmin Yayınlanma Tarihi: 2020
Zengo (Zengo) - 2020 - TR+ORG - FHD - x264 BroserBros 0 30 , Saat: 14:08
Son Yorum: BroserBros
Filmin Yayınlanma Tarihi: 2019
Yalan Dolan (Yalan Dolan) - 2019 - TR+ORG - FHD - x264 BroserBros 0 30 , Saat: 13:57
Son Yorum: BroserBros
Filmin Yayınlanma Tarihi: 2019
Hatıra (The Souvenir) - 2019 - TR+ORG - FHD - x264 BroserBros 0 30 , Saat: 13:05
Son Yorum: BroserBros
Filmin Yayınlanma Tarihi: 2020
My Spy (My Spy) - 2020 - TR+ORG - FHD - x264 BroserBros 0 30 , Saat: 12:54
Son Yorum: BroserBros
Filmin Yayınlanma Tarihi: 2019
Luce (Luce) - 2019 - TR+ORG - FHD - x264 BroserBros 0 28 28-11-2020, Saat: 17:58
Son Yorum: BroserBros

Hızlı Menü: