Filmbol Forum Film İndir BRRip XviD v Belleville Polisi (Le flic de Belleville) Türkçe Dublaj BRRip XviD İndir
Mega linklerinin şikayet edilmemesi için global erişime kapatıp sadece yorum yapanlara açıyoruz. Bu linkleri gizleme işlemini mecburen yapıyoruz ve yorum yapmanızın siteye değil size faydası vardır. Teşekürler yazmayı çok görüp, Random/Spam mesajlar atarak Mega linklerini açmaya çalışan kullanıcılara önce süresiz ban, devam ederse IP ban atacağız.
Filmbol'da moderatör olmak ister misiniz? Bizimle iletişime geçmek için tıklayın!
Belleville Polisi (Le flic de Belleville) Türkçe Dublaj BRRip XviD İndir
BroserBros
Belleville Polisi (Le flic de Belleville) Türkçe Dublaj BRRip XviD İndir
0
274
  • Derecelendirme: 0/5 - 0 oy
  • 1
  • 2
  • 3
  • 4
  • 5
Konuyu Okuyanlar:1 Ziyaretçi
Şuan Online!
Filmin Yayınlanma Tarihi: 2018 
WWW
Şuan Online!
BroserBros Kurucu Admin
*******
Admin








 Belleville Polisi



Baaba'nın Miami'den bir çocukluk arkadaşı uyuşturucu çeteleri tarafından tecavüze uğrar ve öldürülür. Bunu duyan Baaba Miami'ye taşınır ve suçlulardan intikam almak için yerel bir memurla birlikte çalışır.

Belleville Polisi (2018) (Le flic de Belleville ) Filmi Imdb'den 1,000 kişi tarafından oylandı ve 4,7 puan aldı. Bu film için editör puanı 5,5 olarak belirlendi. İyi Seyirler!

Teknik Detaylar

Kod :
General Complete name                            : /root/Desktop/8/Belleville.Polisi.2018.BRRip.XViD.TR.Filmbol.avi Format                                   : AVI Format/Info                              : Audio Video Interleave File size                                : 1.19 GiB Duration                                 : 1h 51mn Overall bit rate                         : 1 534 Kbps  Video ID                                       : 0 Format                                   : MPEG-4 Visual Format profile                           : Advanced [email protected] Format settings, BVOP                    : 2 Format settings, QPel                    : No Format settings, GMC                     : No warppoints Format settings, Matrix                  : Default (MPEG) Codec ID                                 : XVID Codec ID/Hint                            : XviD Duration                                 : 1h 51mn Bit rate                                 : 1 393 Kbps Width                                    : 720 pixels Height                                   : 300 pixels Display aspect ratio                     : 2.40:1 Frame rate                               : 23.976 (23976/1000) fps Color space                              : YUV Chroma subsampling                       : 4:2:0 Bit depth                                : 8 bits Scan type                                : Progressive Compression mode                         : Lossy Bits/(Pixel*Frame)                       : 0.269 Stream size                              : 1.08 GiB (91%) Writing library                          : XviD 64  Audio ID                                       : 1 Format                                   : MPEG Audio Format version                           : Version 1 Format profile                           : Layer 3 Mode                                     : Joint stereo Codec ID                                 : 55 Codec ID/Hint                            : MP3 Duration                                 : 1h 51mn Bit rate mode                            : Constant Bit rate                                 : 128 Kbps Channel(s)                               : 2 channels Sampling rate                            : 48.0 KHz Compression mode                         : Lossy Stream size                              : 102 MiB (8%) Alignment                                : Aligned on interleaves Interleave, duration                     : 24 ms (0.58 video frame)

Film Detayları


 Belleville Polisi

 Belleville Polisi

 Belleville Polisi


Film Fragmanı


Film Detayları

Brrip İndir

Uptobox ile indir

1Fichier ile indir

1Fichier'den İndiremiyor musun? Tıklayın!


Mega linki şuan da gizli. Kullanıma açmak için konuya yorum yapın ve ardından sayfayı yenileyin.

Mega


MediaFire ile indir



Konu ile Alakalı Benzer Konular
Konular Yazar Yorumlar Okunma Son Yorum
Filmin Yayınlanma Tarihi: 2002
Akıl Oyunları (A Beautiful Mind) - 2001 - TR - BRRip XviD | tt0268978 BroserBros 2 243 4 saat önce
Son Yorum: Furkan61
  Her Zaman Şeytan (The Devil All the Time) - 2020 - TR - BRRip XviD | tt7395114 TheSteeL 1 43 4 saat önce
Son Yorum: Furkan61
Filmin Yayınlanma Tarihi: 2020
Baba Aranıyor (Se busca papá) - 2020 - TR - BRRip XviD | tt12721188 TheSteeL 0 32 , Saat: 21:12
Son Yorum: TheSteeL
Filmin Yayınlanma Tarihi: 1999
Yeşil Yol (The Green Mile) - 1999 - TR - BRRip XviD | tt0120689 BroserBros 2 250 , Saat: 15:54
Son Yorum: Furkan61
Filmin Yayınlanma Tarihi: 2019
Beyaz Kentin Sessizliği (El silencio de la ciudad blanca) - 2019 - TR - BRRip XviD | tt8393332 BroserBros 1 249 , Saat: 15:38
Son Yorum: BroserBros

Hızlı Menü: