Filmbol Forum Film İndir 720P v Baykuş Krallığı Efsanesi (Legend of the Guardians: The Owls of Ga'Hoole) - 2010 - TR+ORG - 720P
Moderatör Alımları Başladı! Başvuru yapmak için tıklayın.
Filmbol Premium'da %50'e varan indirim fırsatı!
Baykuş Krallığı Efsanesi (Legend of the Guardians: The Owls of Ga'Hoole) - 2010 - TR+ORG - 720P
BroserBros
Baykuş Krallığı Efsanesi (Legend of the Guardians: The Owls of Ga'Hoole) - 2010 - TR+ORG - 720P
0
183
  • Derecelendirme: 0/5 - 0 oy
  • 1
  • 2
  • 3
  • 4
  • 5
Konuyu Okuyanlar:1 Ziyaretçi
Şuan Online!
Filmin Yayınlanma Tarihi: 2010 
Şuan Online!
BroserBros Kurucu Admin
*******
Admin

Vizyon Tarihi


01 Ekim 2010

imdb puanı


6,9 / 77,000

süre


97 dakika

Editör Puanı


7,3 / 10

Video Format: Mkv


Matroska (.MKV)

Ses Kodek: AC3


Audio Coding 3 (AC3)

sürüm


x264 | 720P | BluRay

Boyutlar


1,07 GB



 Baykuş Krallığı Efsanesi



Warner Bros yapımı üç boyutlu bu filmde genç bir baykuş olan Soren'in hayatına değiniyor. Soren babasının hikayeleri ile büyümüştür ve hikayelerde yer alan koruyucu baykuşlar onu çok etkilemiştir. Bu yüzden de Soren bir koruyucu baykuş olma hayalleri kurmaktadır, fakat bu sandığı ve hayallerinde olduğu gibi bir görev değildir...

Baykuş Krallığı Efsanesi (2010) (Legend of the Guardians: The Owls of Ga'Hoole) Filmi Imdb'den 77,000 kişi tarafından oylandı ve 6,9 puan aldı. Bu film için editör puanı 7,3 olarak belirlendi. İyi Seyirler!

Teknik Detaylar

Kod :
General
Unique ID                                : 25111340008576172634561523244195411895 (0x12E444A6915163C3CB263DDD008C77B7)
Complete name                            : /root/Desktop/6/Baykuş.Kralligi.Efsanesi.2010.720p.BluRay.x264.TR.ENG.Filmbol.mkv
Format                                  : Matroska
Format version                          : Version 4 / Version 2
File size                                : 1.07 GiB
Duration                                : 1h 36mn
Overall bit rate                        : 1 578 Kbps
Movie name                              : Baykuş Krallığı Efsanesi - Legend of the Guardians The Owls of Ga Hoole - 2010 | Filmbol.org
Encoded date                            : UTC 2020-05-17 13:10:20
Writing application                      : mkvmerge v8.8.0 ('Wind at my back') 64bit
Writing library                          : libebml v1.3.3 + libmatroska v1.4.4

Video
ID                                      : 1
Format                                  : AVC
Format/Info                              : Advanced Video Codec
Format profile                          : High@L4
Format settings, CABAC                  : Yes
Format settings, ReFrames                : 6 frames
Codec ID                                : V_MPEG4/ISO/AVC
Duration                                : 1h 36mn
Bit rate                                : 842 Kbps
Width                                    : 1 280 pixels
Height                                  : 544 pixels
Display aspect ratio                    : 2.35:1
Frame rate mode                          : Constant
Frame rate                              : 23.976 (24000/1001) fps
Color space                              : YUV
Chroma subsampling                      : 4:2:0
Bit depth                                : 8 bits
Scan type                                : Progressive
Bits/(Pixel*Frame)                      : 0.050
Stream size                              : 583 MiB (53%)
Title                                    : 720P - Filmbol.org
Writing library                          : x264 core 120 r2164 da19765
Encoding settings                        : cabac=1 / ref=6 / deblock=1:-2:-1 / analyse=0x3:0x133 / me=umh / subme=9 / psy=1 / psy_rd=1.00:0.15 / mixed_ref=1 / me_range=16 / chroma_me=1 / trellis=2 / 8x8dct=1 / cqm=0 / deadzone=21,11 / fast_pskip=1 / chroma_qp_offset=-3 / threads=12 / sliced_threads=0 / nr=0 / decimate=1 / interlaced=0 / bluray_compat=0 / constrained_intra=0 / bframes=3 / b_pyramid=2 / b_adapt=2 / b_bias=0 / direct=3 / weightb=1 / open_gop=0 / weightp=2 / keyint=240 / keyint_min=23 / scenecut=40 / intra_refresh=0 / rc_lookahead=60 / rc=2pass / mbtree=1 / bitrate=842 / ratetol=1.0 / qcomp=0.60 / qpmin=10 / qpmax=51 / qpstep=4 / cplxblur=20.0 / qblur=0.5 / ip_ratio=1.40 / aq=1:1.00
Default                                  : Yes
Forced                                  : No

Audio #1
ID                                      : 2
Format                                  : AC-3
Format/Info                              : Audio Coding 3
Mode extension                          : CM (complete main)
Format settings, Endianness              : Big
Codec ID                                : A_AC3
Duration                                : 1h 36mn
Bit rate mode                            : Constant
Bit rate                                : 640 Kbps
Channel(s)                              : 6 channels
Channel positions                        : Front: L C R, Side: L R, LFE
Sampling rate                            : 48.0 KHz
Frame rate                              : 31.250 fps (1536 spf)
Compression mode                        : Lossy
Stream size                              : 443 MiB (41%)
Title                                    : Türkçe - Filmbol.org
Default                                  : Yes
Forced                                  : Yes

Audio #2
ID                                      : 3
Format                                  : AAC
Format/Info                              : Advanced Audio Codec
Format profile                          : LC
Codec ID                                : A_AAC
Duration                                : 1h 36mn
Bit rate                                : 94.0 Kbps
Channel(s)                              : 2 channels
Channel positions                        : Front: L R
Sampling rate                            : 44.1 KHz
Frame rate                              : 43.066 fps (1024 spf)
Compression mode                        : Lossy
Stream size                              : 65.1 MiB (6%)
Title                                    : Ingilizce - Filmbol.org
Default                                  : No
Forced                                  : No

Text
ID                                      : 4
Format                                  : UTF-8
Codec ID                                : S_TEXT/UTF8
Codec ID/Info                            : UTF-8 Plain Text
Duration                                : 1h 27mn
Bit rate                                : 60 bps
Count of elements                        : 1169
Stream size                              : 38.9 KiB (0%)
Title                                    : Türkçe Altyazı - Filmbol.org
Default                                  : Yes
Forced                                  : No

Film Detayları


 Baykuş Krallığı Efsanesi

 Baykuş Krallığı Efsanesi

 Baykuş Krallığı Efsanesi


Film Fragmanı


Film Detayları

Uptobox ile indir

1Fichier ile indir

1Fichier'den İndiremiyor musun? Tıklayın!


Bunun için üzgünüz ancak, bu linke sadece premium üyeler erişebilir.

Filmbol Cloud



Konu ile Alakalı Benzer Konular
Konular Yazar Yorumlar Okunma Son Yorum
Filmin Yayınlanma Tarihi: 2020
The Hunt (Av) - 2020 - TR+ORG - 720P BroserBros 0 329 18-09-2020, Saat: 19:28
Son Yorum: BroserBros
Filmin Yayınlanma Tarihi: 2018
Gözbebeğim (Pupille) - 2018 - TR+ORG - 720P BroserBros 0 324 18-09-2020, Saat: 13:02
Son Yorum: BroserBros
  Umut Vadisi (Hope Gap) - 2019 - TR+ORG - 720P BroserBros 0 319 18-09-2020, Saat: 12:51
Son Yorum: BroserBros
Filmin Yayınlanma Tarihi: 2020
Malibu Rescue: Yeni Dalga (Malibu Rescue: The Next Wave) - 2020 - TR+ORG - 720P BroserBros 0 142 13-09-2020, Saat: 20:54
Son Yorum: BroserBros
Filmin Yayınlanma Tarihi: 2020
Masallardan Geriye Kalan (Yerli) - 2020 - TR+ORG - 720P BroserBros 0 389 01-09-2020, Saat: 21:49
Son Yorum: BroserBros

Hızlı Menü: