Filmbol Forum Film İndir BRRip XviD v Baykuş Krallığı Efsanesi (Legend of the Guardians: The Owls of Ga'Hoole) - 2010 - TR - BRRip XviD
Moderatör Alımları Başladı! Başvuru yapmak için tıklayın.
Filmbol Premium'da %50'e varan indirim fırsatı!
Baykuş Krallığı Efsanesi (Legend of the Guardians: The Owls of Ga'Hoole) - 2010 - TR - BRRip XviD
BroserBros
Baykuş Krallığı Efsanesi (Legend of the Guardians: The Owls of Ga'Hoole) - 2010 - TR - BRRip XviD
0
112
  • Derecelendirme: 0/5 - 0 oy
  • 1
  • 2
  • 3
  • 4
  • 5
Konuyu Okuyanlar:1 Ziyaretçi
Şuan Offine!
Filmin Yayınlanma Tarihi: 2010 
Şuan Offine!
BroserBros Kurucu Admin
*******
Admin

Vizyon Tarihi


01 Ekim 2010

imdb puanı


6,9 / 77,000

süre


97 dakika

Editör Puanı


7,3 / 10

Video Format: Avi


Audio Video Interleave (.AVI)

Ses Kodek: MP3


MPEG-1 Audio Layer III (MP3)

sürüm


h263 | BRRip XviD

Boyutlar


0,70 GB



 Baykuş Krallığı Efsanesi



Warner Bros yapımı üç boyutlu bu filmde genç bir baykuş olan Soren'in hayatına değiniyor. Soren babasının hikayeleri ile büyümüştür ve hikayelerde yer alan koruyucu baykuşlar onu çok etkilemiştir. Bu yüzden de Soren bir koruyucu baykuş olma hayalleri kurmaktadır, fakat bu sandığı ve hayallerinde olduğu gibi bir görev değildir...

Baykuş Krallığı Efsanesi (2010) (Legend of the Guardians: The Owls of Ga'Hoole) Filmi Imdb'den 77,000 kişi tarafından oylandı ve 6,9 puan aldı. Bu film için editör puanı 7,3 olarak belirlendi. İyi Seyirler!

Teknik Detaylar

Kod :
General
Complete name                            : /root/Desktop/6/Baykus.Kralligi.Efsanesi.2010.TR.BRRip.XviD.avi
Format                                  : AVI
Format/Info                              : Audio Video Interleave
File size                                : 700 MiB
Duration                                : 1h 36mn
Overall bit rate                        : 1 011 Kbps
Writing application                      : VirtualDubMod 1.5.10.2 (build 2540/release)
Writing library                          : VirtualDubMod build 2540/release

Video
ID                                      : 0
Format                                  : MPEG-4 Visual
Format profile                          : Advanced Simple@L5
Format settings, BVOP                    : 2
Format settings, QPel                    : No
Format settings, GMC                    : No warppoints
Format settings, Matrix                  : Default (MPEG)
Codec ID                                : XVID
Codec ID/Hint                            : XviD
Duration                                : 1h 36mn
Bit rate                                : 874 Kbps
Width                                    : 656 pixels
Height                                  : 272 pixels
Display aspect ratio                    : 2.40:1
Frame rate                              : 23.976 (23976/1000) fps
Color space                              : YUV
Chroma subsampling                      : 4:2:0
Bit depth                                : 8 bits
Scan type                                : Progressive
Compression mode                        : Lossy
Bits/(Pixel*Frame)                      : 0.204
Stream size                              : 605 MiB (86%)
Writing library                          : XviD 1.2.1 (UTC 2008-12-04)

Audio
ID                                      : 1
Format                                  : MPEG Audio
Format version                          : Version 1
Format profile                          : Layer 3
Mode                                    : Joint stereo
Mode extension                          : MS Stereo
Codec ID                                : 55
Codec ID/Hint                            : MP3
Duration                                : 1h 36mn
Bit rate mode                            : Constant
Bit rate                                : 128 Kbps
Channel(s)                              : 2 channels
Sampling rate                            : 48.0 KHz
Compression mode                        : Lossy
Stream size                              : 88.6 MiB (13%)
Alignment                                : Aligned on interleaves
Interleave, duration                    : 42 ms (1.00 video frame)
Interleave, preload duration            : 504 ms

Film Detayları


 Baykuş Krallığı Efsanesi

 Baykuş Krallığı Efsanesi

 Baykuş Krallığı Efsanesi


Film Fragmanı


Film Detayları


Uptobox ile indir

1Fichier ile indir

1Fichier'den İndiremiyor musun? Tıklayın!


Mega ile indir

Bunun için üzgünüz ancak, bu linke sadece premium üyeler erişebilir.

Filmbol Cloud



Konu ile Alakalı Benzer Konular
Konular Yazar Yorumlar Okunma Son Yorum
Filmin Yayınlanma Tarihi: 2014
Lucy (2014) Türkçe Dublaj BRRip XviD İndir BroserBros 1 255 19-09-2020, Saat: 00:56
Son Yorum: sectechno
Filmin Yayınlanma Tarihi: 2020
The Hunt (Av) - 2020 - TR - BRRip XviD BroserBros 0 192 18-09-2020, Saat: 19:28
Son Yorum: BroserBros
Filmin Yayınlanma Tarihi: 2018
Gözbebeğim (Pupille) - 2018 - TR - BRRip XviD BroserBros 0 193 18-09-2020, Saat: 13:02
Son Yorum: BroserBros
Filmin Yayınlanma Tarihi: 2019
Umut Vadisi (Hope Gap) - 2019 - TR - BRRip XviD BroserBros 0 192 18-09-2020, Saat: 12:50
Son Yorum: BroserBros
Filmin Yayınlanma Tarihi: 2019
Cep Herkülü: Naim Süleymanoğlu (Cep Herkülü: Naim Süleymanoğlu) - 2019 - TR - BRRip XviD BroserBros 0 108 15-09-2020, Saat: 21:51
Son Yorum: BroserBros

Hızlı Menü: