Filmbol Forum Film İndir BRRip XviD v Bataklığın Sessizliği (El Silencio del Pantano) - 2019 - TR - BRRip XviD
Bataklığın Sessizliği (El Silencio del Pantano) - 2019 - TR - BRRip XviD
BroserBros
Bataklığın Sessizliği (El Silencio del Pantano) - 2019 - TR - BRRip XviD
0
73
  • Derecelendirme: 0/5 - 0 oy
  • 1
  • 2
  • 3
  • 4
  • 5
Konuyu Okuyanlar:1 Ziyaretçi
Şuan Online!
Filmin Yayınlanma Tarihi: 2019 
Şuan Online!
BroserBros Kurucu Admin
*******
Admin

Vizyon Tarihi


01 Ocak 2020

imdb puanı


5,1 / 1,000

süre


92 dakika

Editör Puanı


5,0 / 10

Video Format: Avi


Audio Video Interleave (.AVI)

Ses Kodek: MP3


MPEG-1 Audio Layer III (MP3)

sürüm


h263 | HDRip XviD

Boyutlar


0,70 GB



 Bataklığın Sessizliği



İspanyolların en iyi yaptıkları iş bence de Gerilim türüdür. Bu en iyi filmleri değil, ancak yine de izlenilebilir seviyede. Konusu ise bir yazarın gerçekle kurgu arasındaki ipi koparması ile oluşuyor. Yolsuzluk meselesini araştıran bu yazar, tamamen kendini kaybetmiş durumda kalıyor...

Bataklığın Sessizliği (2019) (El Silencio del Pantano) Filmi Imdb'den 1,000 kişi tarafından oylandı ve 5,1 puan aldı. Bu film için editör puanı 5,0 olarak belirlendi. İyi Seyirler!

Teknik Detaylar

Kod :
General
Complete name                            : /root/Desktop/2/Bataklığın.Sessizliği.2019.HDRip.XViD.TR.Filmbol.avi
Format                                  : AVI
Format/Info                              : Audio Video Interleave
File size                                : 701 MiB
Duration                                : 1h 32mn
Overall bit rate                        : 1 057 Kbps

Video
ID                                      : 0
Format                                  : MPEG-4 Visual
Format profile                          : Advanced Simple@L5
Format settings, BVOP                    : 1
Format settings, QPel                    : No
Format settings, GMC                    : No warppoints
Format settings, Matrix                  : Default (H.263)
Codec ID                                : XVID
Codec ID/Hint                            : XviD
Duration                                : 1h 32mn
Bit rate                                : 916 Kbps
Width                                    : 720 pixels
Height                                  : 304 pixels
Display aspect ratio                    : 2.35:1
Frame rate                              : 24.000 fps
Color space                              : YUV
Chroma subsampling                      : 4:2:0
Bit depth                                : 8 bits
Scan type                                : Progressive
Compression mode                        : Lossy
Bits/(Pixel*Frame)                      : 0.174
Stream size                              : 608 MiB (87%)
Writing library                          : XviD 67

Audio
ID                                      : 1
Format                                  : MPEG Audio
Format version                          : Version 1
Format profile                          : Layer 3
Mode                                    : Joint stereo
Mode extension                          : MS Stereo
Codec ID                                : 55
Codec ID/Hint                            : MP3
Duration                                : 1h 32mn
Bit rate mode                            : Constant
Bit rate                                : 128 Kbps
Channel(s)                              : 2 channels
Sampling rate                            : 48.0 KHz
Compression mode                        : Lossy
Stream size                              : 84.9 MiB (12%)
Alignment                                : Aligned on interleaves
Interleave, duration                    : 24 ms (0.58 video frame)

Film Detayları


 Bataklığın Sessizliği

 Bataklığın Sessizliği

 Bataklığın Sessizliği


Film Fragmanı


Film Detayları


Uptobox ile indir

1Fichier ile indir

1Fichier'den İndiremiyor musun? Tıklayın!


Mega ile indir

Bunun için üzgünüz ancak, bu linke sadece premium üyeler erişebilir.

Filmbol Cloud



Konu ile Alakalı Benzer Konular
Konular Yazar Yorumlar Okunma Son Yorum
Filmin Yayınlanma Tarihi: 2014
Transformers: Kayıp Çağ (Transformers: Age of Extinction) - 2014 - TR - BRRip XviD BroserBros 0 23 , Saat: 23:15
Son Yorum: BroserBros
Filmin Yayınlanma Tarihi: 2019
Queen & Slim (Queen ve Slim) - 2019 - TR - BRRip XviD BroserBros 0 19 , Saat: 22:53
Son Yorum: BroserBros
Filmin Yayınlanma Tarihi: 2015
Minyonlar (Minions) - 2015 - TR - BRRip XviD BroserBros 0 6 , Saat: 22:34
Son Yorum: BroserBros
Filmin Yayınlanma Tarihi: 2014
Herkül: Özgürlük Savaşçısı (Hercules) - 2014 - TR - BRRip XviD BroserBros 0 11 , Saat: 18:14
Son Yorum: BroserBros
Filmin Yayınlanma Tarihi: 2017
Justice League: Adalet Birliği (Justice League) - 2017 - TR - BRRip XviD BroserBros 1 31 , Saat: 16:59
Son Yorum: sectechno

Hızlı Menü: