Hoşgeldin, Ziyaretçi: Giriş Yap Üye Ol


stats
Adblock'u kapattıysanız tıklayın.
Hoşgeldiniz!
Filmbol'u tercih ettiğiniz için teşekkürler, ancak ablock kullanarak devam edemezsiniz.
Merak etmeyin. Heryerden ardı ardına çıkan reklamlar görmeyeceksiniz :)

Sadece site içi 1 reklam göreceksin ve bu site gezintini etkilemeyecek.
Konuyu Oyla:
  • Derecelendirme: 0/5 - 0 oy
  • 1
  • 2
  • 3
  • 4
  • 5
Başlat (Ready Player One) (2018) Türkçe Dublaj m1080P İndir
#1
Filmin Yayınlanma Tarihi: 2018 

indirme türü


Bulut + Premium

vizyon tarihi


30 Mart 2018

Boyutlar


2,67

diller


[TR] | [ENG]

altyazilar


[TR] [Eklenebilir]

Video Format: Mkv


Matroska (.MKV)

Video Detay


MPEG-4, 2150 Kbps, 2,10 GB

imdb puanı


7,6 / 10,0 / 175,000

süre


140 dakika

Ses Kodek: AC3


Audio Coding 3 (AC3)

Ses Detay


384|192 Kbps, 6|2 Kanal, 384|192 Mb

rarsifresi


Filmbol.org

Editör Puanı


7,5

Genislik Yukseklik


1920x800

sürüm


x264 | m1080P



Film Detayları

Wade Watts, ailesini küçük yaşta kaybetmiş bir kişidir. Ailesi ile vakit geçiremediğinden fazlaca boş zamanı oluşmuş, bu boş zamanı ise popüler oyunlardan birisi olan The Oasis ile geçirmeye başlamıştır. Oyunun yaratıcısının ölümü ile birlikte oyun içinde hazırladığı bir parkur ortaya çıkmıştır. Bu parkuru tamamlamak için 3 ise anahtar'a ihtiyaç vardır. Parkur'u tamamlayan kişiye ise Oyunun milyarlık şirkeyi tamamen devr edilecektir. Wade ise bu zorlu yolculuğa çıkmıştır bile.


Teknik Detaylar
Kod:
General
Complete name                            : Ready.Player.One.2018.m1080P.x264.TR.mkv
Format                                   : Matroska
Format version                           : Version 4 / Version 2
File size                                : 2.68 GiB
Duration                                 : 2 h 19 min
Overall bit rate                         : 2 737 kb/s
Movie name                               : Başlat / Ready Player One - Filmbol
Encoded date                             : UTC 2018-07-15 15:05:48
Writing application                      : mkvmerge v15.0.0 ('Duel with the Devil') 64-bit
Writing library                          : libebml v1.3.5 + libmatroska v1.4.7

Video
ID                                       : 1
Format                                   : AVC
Format/Info                              : Advanced Video Codec
Format profile                           : High@L4.1
Format settings                          : CABAC / 4 Ref Frames
Format settings, CABAC                   : Yes
Format settings, ReFrames                : 4 frames
Codec ID                                 : V_MPEG4/ISO/AVC
Duration                                 : 2 h 19 min
Bit rate                                 : 2 150 kb/s
Width                                    : 1 920 pixels
Height                                   : 800 pixels
Display aspect ratio                     : 2.40:1
Frame rate mode                          : Constant
Frame rate                               : 23.976 (24000/1001) FPS
Color space                              : YUV
Chroma subsampling                       : 4:2:0
Bit depth                                : 8 bits
Scan type                                : Progressive
Bits/(Pixel*Frame)                       : 0.058
Stream size                              : 2.10 GiB (79%)
Writing library                          : x264 core 155
Encoding settings                        : cabac=1 / ref=4 / deblock=1:-1:-1 / analyse=0x3:0x133 / me=umh / subme=9 / psy=1 / psy_rd=1.00:0.15 / mixed_ref=1 / me_range=24 / chroma_me=1 / trellis=2 / 8x8dct=1 / cqm=0 / deadzone=21,11 / fast_pskip=0 / chroma_qp_offset=-3 / threads=18 / lookahead_threads=1 / sliced_threads=0 / nr=0 / decimate=1 / interlaced=0 / bluray_compat=0 / constrained_intra=0 / bframes=3 / b_pyramid=2 / b_adapt=2 / b_bias=0 / direct=3 / weightb=1 / open_gop=0 / weightp=2 / keyint=250 / keyint_min=23 / scenecut=40 / intra_refresh=0 / rc_lookahead=60 / rc=2pass / mbtree=1 / bitrate=2150 / ratetol=1.0 / qcomp=0.60 / qpmin=0 / qpmax=69 / qpstep=4 / cplxblur=20.0 / qblur=0.5 / vbv_maxrate=31250 / vbv_bufsize=31250 / nal_hrd=none / filler=0 / ip_ratio=1.40 / aq=1:1.00
Default                                  : Yes
Forced                                   : No

Audio #1
ID                                       : 2
Format                                   : AC-3
Format/Info                              : Audio Coding 3
Codec ID                                 : A_AC3
Duration                                 : 2 h 19 min
Bit rate mode                            : Constant
Bit rate                                 : 384 kb/s
Channel(s)                               : 6 channels
Channel positions                        : Front: L C R, Side: L R, LFE
Sampling rate                            : 48.0 kHz
Frame rate                               : 31.250 FPS (1536 SPF)
Bit depth                                : 16 bits
Compression mode                         : Lossy
Stream size                              : 384 MiB (14%)
Title                                    : Türkçe
Language                                 : Turkish
Service kind                             : Complete Main
Default                                  : Yes
Forced                                   : No

Audio #2
ID                                       : 3
Format                                   : AC-3
Format/Info                              : Audio Coding 3
Codec ID                                 : A_AC3
Duration                                 : 2 h 19 min
Bit rate mode                            : Constant
Bit rate                                 : 192 kb/s
Channel(s)                               : 2 channels
Channel positions                        : Front: L R
Sampling rate                            : 48.0 kHz
Frame rate                               : 31.250 FPS (1536 SPF)
Bit depth                                : 16 bits
Compression mode                         : Lossy
Stream size                              : 192 MiB (7%)
Title                                    : Ingilizce
Language                                 : English
Service kind                             : Complete Main
Default                                  : No
Forced                                   : No

Text #1
ID                                       : 4
Format                                   : UTF-8
Codec ID                                 : S_TEXT/UTF8
Codec ID/Info                            : UTF-8 Plain Text
Duration                                 : 2 h 16 min
Bit rate                                 : 0 b/s
Count of elements                        : 43
Stream size                              : 1 014 Bytes (0%)
Title                                    : Türkçe
Language                                 : Turkish
Default                                  : Yes
Forced                                   : No

Text #2
ID                                       : 5
Format                                   : PGS
Muxing mode                              : zlib
Codec ID                                 : S_HDMV/PGS
Codec ID/Info                            : Picture based subtitle format used on BDs/HD-DVDs
Duration                                 : 2 h 18 min
Bit rate                                 : 30.6 kb/s
Count of elements                        : 3188
Stream size                              : 30.4 MiB (1%)
Title                                    : Türkçe Tam
Language                                 : Turkish
Default                                  : No
Forced                                   : No




Film Detayları


Baslat

Baslat

Baslat

Baslat

Baslat


Film Fragmanı


Film Detayları

Mini 1080P İndir


Turbobit İle İndir

Mega ile indir

Uptobox ile indir

 
Cevapla
  


Konu ile Alakalı Benzer Konular
Konular Yazar Yorumlar Okunma Son Yorum
Filmin Yayınlanma Tarihi: 2018 Venom: Zehirli Öfke (2018) Türkçe Dublaj Bluray m1080P İndir DRMOV 15 750 31-07-2019, Saat: 14:12
Son Yorum: Aspirin46
Filmin Yayınlanma Tarihi: 2018 Yenilmezler: Sonsuzluk Savaşı (2018) Türkçe Dublaj m1080P İndir BroserBros 2 5,579 02-05-2019, Saat: 17:18
Son Yorum: emircan

Hızlı Menü:


Şu anda bu konuyu okuyanlar: 2 Ziyaretçi