Filmbol Forum Film İndir 720P v Bad Boys: Her Zaman Çılgın (Bad Boys for Life) - 2020 - TR+ENG - 720P
Moderatör Alımları Başladı! Başvuru yapmak için tıklayın.
Filmbol Premium'da %50'e varan indirim fırsatı!
Bad Boys: Her Zaman Çılgın (Bad Boys for Life) - 2020 - TR+ENG - 720P
BroserBros
Bad Boys: Her Zaman Çılgın (Bad Boys for Life) - 2020 - TR+ENG - 720P
2
224
  • Derecelendirme: 0/5 - 0 oy
  • 1
  • 2
  • 3
  • 4
  • 5
Konuyu Okuyanlar:1 Ziyaretçi
Şuan Offine!
Filmin Yayınlanma Tarihi: 2020 
Şuan Offine!
BroserBros Kurucu Admin
*******
Admin

Vizyon Tarihi


24 Ocak 2020

imdb puanı


6,7 / 90,000

süre


124 dakika

Editör Puanı


7,0 / 10

Video Format: Mkv


Matroska (.MKV)

Ses Kodek: AC3


Audio Coding 3 (AC3)

sürüm


x264 | 720P | BLURAY

Boyutlar


1,50 GB



 Bad Boys: Her Zaman Çılgın



2 Çılgın polis uyuşturucuya karşı kişisel bir savaş açmıştır ve yolları gayet zorludur çünkü polislerden birisi aynı zamanda orta yaş krizi ile uğraşmaktadır. Hedeflerinde ise uyuşturucu baronu Armando Armas vardır...

Bad Boys: Her Zaman Çılgın (2020) (Bad Boys for Life) Filmi Imdb'den 90,000 kişi tarafından oylandı ve 6,7 puan aldı. Bu film için editör puanı 7,0 olarak belirlendi. İyi Seyirler!

Teknik Detaylar

Kod :
General
Unique ID                                : 54058091539593931612169739778673216849 (0x28AB35B06C50F3856B5C3819E0020D51)
Complete name                            : /root/Desktop/1/Bad.Boys.Her.Zaman.Çılgın.2020.720p.BluRay.x264.TR.EN.Filmbol.mkv
Format                                  : Matroska
Format version                          : Version 4 / Version 2
File size                                : 1.50 GiB
Duration                                : 2h 3mn
Overall bit rate                        : 1 728 Kbps
Movie name                              : Bad Boys: Her Zaman Cılgın (2020) - Filmbol.org
Encoded date                            : UTC 2020-05-06 07:43:27
Writing application                      : mkvmerge v8.8.0 ('Wind at my back') 64bit
Writing library                          : libebml v1.3.3 + libmatroska v1.4.4

Video
ID                                      : 1
Format                                  : AVC
Format/Info                              : Advanced Video Codec
Format profile                          : High@L4.1
Format settings, CABAC                  : Yes
Format settings, ReFrames                : 4 frames
Codec ID                                : V_MPEG4/ISO/AVC
Duration                                : 2h 3mn
Bit rate                                : 1 150 Kbps
Width                                    : 1 280 pixels
Height                                  : 534 pixels
Display aspect ratio                    : 2.40:1
Original display aspect ratio            : 2.40:1
Frame rate mode                          : Constant
Frame rate                              : 23.976 (24000/1001) fps
Color space                              : YUV
Chroma subsampling                      : 4:2:0
Bit depth                                : 8 bits
Scan type                                : Progressive
Bits/(Pixel*Frame)                      : 0.070
Stream size                              : 1 020 MiB (67%)
Title                                    : Filmbol.org
Writing library                          : x264 core 158
Encoding settings                        : cabac=1 / ref=4 / deblock=1:-1:-1 / analyse=0x3:0x133 / me=umh / subme=9 / psy=1 / psy_rd=1.00:0.15 / mixed_ref=1 / me_range=24 / chroma_me=1 / trellis=2 / 8x8dct=1 / cqm=0 / deadzone=21,11 / fast_pskip=0 / chroma_qp_offset=-3 / threads=17 / lookahead_threads=1 / sliced_threads=0 / nr=0 / decimate=1 / interlaced=0 / bluray_compat=0 / constrained_intra=0 / bframes=3 / b_pyramid=2 / b_adapt=2 / b_bias=0 / direct=3 / weightb=1 / open_gop=0 / weightp=2 / keyint=250 / keyint_min=23 / scenecut=40 / intra_refresh=0 / rc_lookahead=60 / rc=2pass / mbtree=1 / bitrate=1150 / ratetol=1.0 / qcomp=0.60 / qpmin=0 / qpmax=69 / qpstep=4 / cplxblur=20.0 / qblur=0.5 / vbv_maxrate=31250 / vbv_bufsize=31250 / nal_hrd=none / filler=0 / ip_ratio=1.40 / aq=1:1.00
Default                                  : Yes
Forced                                  : No

Audio #1
ID                                      : 2
Format                                  : AC-3
Format/Info                              : Audio Coding 3
Mode extension                          : CM (complete main)
Format settings, Endianness              : Big
Codec ID                                : A_AC3
Duration                                : 2h 3mn
Bit rate mode                            : Constant
Bit rate                                : 384 Kbps
Channel(s)                              : 6 channels
Channel positions                        : Front: L C R, Side: L R, LFE
Sampling rate                            : 48.0 KHz
Frame rate                              : 31.250 fps (1536 spf)
Compression mode                        : Lossy
Stream size                              : 340 MiB (22%)
Title                                    : Filmbol.org
Language                                : Turkish
Default                                  : Yes
Forced                                  : No

Audio #2
ID                                      : 3
Format                                  : AC-3
Format/Info                              : Audio Coding 3
Mode extension                          : CM (complete main)
Format settings, Endianness              : Big
Codec ID                                : A_AC3
Duration                                : 2h 3mn
Bit rate mode                            : Constant
Bit rate                                : 192 Kbps
Channel(s)                              : 2 channels
Channel positions                        : Front: L R
Sampling rate                            : 48.0 KHz
Frame rate                              : 31.250 fps (1536 spf)
Compression mode                        : Lossy
Stream size                              : 170 MiB (11%)
Title                                    : Filmbol.org
Language                                : English
Default                                  : No
Forced                                  : No

Text
ID                                      : 4
Format                                  : UTF-8
Codec ID                                : S_TEXT/UTF8
Codec ID/Info                            : UTF-8 Plain Text
Duration                                : 1h 57mn
Bit rate                                : 65 bps
Count of elements                        : 1515
Stream size                              : 56.3 KiB (0%)
Title                                    : Filmbol.org
Language                                : Turkish
Default                                  : No
Forced                                  : No

Film Detayları


 Bad Boys: Her Zaman Çılgın

 Bad Boys: Her Zaman Çılgın

 Bad Boys: Her Zaman Çılgın


Film Fragmanı


Film Detayları

Uptobox ile indir

1Fichier ile indir

1Fichier'den İndiremiyor musun? Tıklayın!


Mega ile indir

Bunun için üzgünüz ancak, bu linke sadece premium üyeler erişebilir.

Filmbol Cloud

Şuan Offine!
Şuan Offine!
s-erkan Yeni Üye
*
Üye

  • Konular0
  • Mesajlar1
  • Rep puanı 0
MEGA da.  Böyle bir hata alıyorum...   
To access this folder/file, you will need its Decryption key.
If you do not have the key, contact the creator of the link
Decryption Key
Şuan Offine!
Şuan Offine!
BroserBros Kurucu Admin
*******
Admin

(08-05-2020, Saat: 22:39)s-erkan Adlı Kullanıcıdan Alıntı: MEGA da.  Böyle bir hata alıyorum...   
To access this folder/file, you will need its Decryption key.
If you do not have the key, contact the creator of the link
Decryption Key
Sorun düzeltildi.


Konu ile Alakalı Benzer Konular
Konular Yazar Yorumlar Okunma Son Yorum
Filmin Yayınlanma Tarihi: 2020
Holly Slept Over (Holly Slept Over) - 2020 - TR+ORG - 720P BroserBros 0 978 08-10-2020, Saat: 20:08
Son Yorum: BroserBros
Filmin Yayınlanma Tarihi: 2019
Rahat Kız (An Easy Girl) - 2019 - TR+ORG - 720P BroserBros 0 226 08-10-2020, Saat: 19:35
Son Yorum: BroserBros
Filmin Yayınlanma Tarihi: 2020
Mavi Korku 3 (Deep Blue Sea 3) - 2020 - TR+ORG - 720P BroserBros 0 330 03-10-2020, Saat: 21:12
Son Yorum: BroserBros
Filmin Yayınlanma Tarihi: 2018
Fast Color: Gücünü Serbest Bırak (Fast Color) - 2018 - TR+ORG - 720P BroserBros 0 325 03-10-2020, Saat: 16:46
Son Yorum: BroserBros
Filmin Yayınlanma Tarihi: 2019
Benim Şapşik Köpeğim (Mon chien Stupide) - 2019 - TR+ORG - 720P BroserBros 0 155 02-10-2020, Saat: 21:35
Son Yorum: BroserBros

Hızlı Menü: