Filmbol Forum Film İndir 720P v Ayin (Hereditary) Türkçe Dublaj BLURAY 720P İndir
Filmbol'da moderatör olmak ister misiniz? Bizimle iletişime geçmek için tıklayın!
Ayin (Hereditary) Türkçe Dublaj BLURAY 720P İndir
BroserBros
Ayin (Hereditary) Türkçe Dublaj BLURAY 720P İndir
2
468
  • Derecelendirme: 0/5 - 0 oy
  • 1
  • 2
  • 3
  • 4
  • 5
Konuyu Okuyanlar:1 Ziyaretçi
Şuan Online!
Filmin Yayınlanma Tarihi: 2018 
Şuan Online!
BroserBros Kurucu Admin
*******
Admin

Vizyon Tarihi


08 Haziran 2018

imdb puanı


7,3 / 190,000

süre


127 dakika

Editör Puanı


7,2

Video Format: Mkv


Matroska (.MKV)

Ses Kodek: AC3


Audio Coding 3 (AC3)

sürüm


x264 | 720P | BLURAY

Boyutlar


1,11



Ayin



Film Detayları

Ayin (2018) Türkçe Dublaj Bluray Brrip-Xvid İndir | Kısa özet:

Graham ailesinin sert maderşahisi Ellen öldüğünde, kızı Annie ve ailesi atalarının gizemli ve giderek korkunçlaşan sırlarını keşfetmeye başlar. Keşfettikleri karanlıklaştıkça, aile üyeleri kendilerine miras kalmış gibi görünen bu korkunç kaderden kurtulmak için daha fazla mücadele etmek zorunda kalır. Ailevi bir trajediyi uğursuz ve derinden sarsıcı bir şeye dönüştüren olaylar, kalan paramparça mirasın gölgesini taşımaktadır...

Ayin (Hereditary) Filmi Imdb'den 190,000 kişi tarafından oylandı ve 7,3 puan aldı. Bu film için editör puanı 7,2 olarak belirlendi. İyi Seyirler!


Teknik Detaylar

Kod :
General
Unique ID                                : 258474095105152685375532420127266513508 (0xC2744CCA40D9BB004520938C52992264)
Complete name                            : /root/Desktop/New/Ayin.2018.720P.BLURAY.x264.TR.Filmbol.mkv
Format                                   : Matroska
Format version                           : Version 4 / Version 2
File size                                : 1.11 GiB
Duration                                 : 2h 7mn
Overall bit rate                         : 1 243 Kbps
Movie name                               : Ayin (2018) - Filmbol.org
Encoded date                             : UTC 2019-12-26 09:37:48
Writing application                      : mkvmerge v25.0.0 ('Prog Noir') 64-bit
Writing library                          : libebml v1.3.6 + libmatroska v1.4.9

Video
ID                                       : 1
Format                                   : AVC
Format/Info                              : Advanced Video Codec
Format profile                           : High@L4.1
Format settings, CABAC                   : Yes
Format settings, ReFrames                : 4 frames
Codec ID                                 : V_MPEG4/ISO/AVC
Duration                                 : 2h 7mn
Bit rate                                 : 1 050 Kbps
Width                                    : 1 280 pixels
Height                                   : 640 pixels
Display aspect ratio                     : 2.000
Frame rate mode                          : Constant
Frame rate                               : 23.976 (24000/1001) fps
Color space                              : YUV
Chroma subsampling                       : 4:2:0
Bit depth                                : 8 bits
Scan type                                : Progressive
Bits/(Pixel*Frame)                       : 0.053
Stream size                              : 957 MiB (84%)
Title                                    : 720P - Filmbol.org
Writing library                          : x264 core 155
Default                                  : Yes
Forced                                   : No

Audio
ID                                       : 2
Format                                   : AC-3
Format/Info                              : Audio Coding 3
Mode extension                           : CM (complete main)
Format settings, Endianness              : Big
Codec ID                                 : A_AC3
Duration                                 : 2h 7mn
Bit rate mode                            : Constant
Bit rate                                 : 192 Kbps
Channel(s)                               : 2 channels
Channel positions                        : Front: L R
Sampling rate                            : 48.0 KHz
Frame rate                               : 31.250 fps (1536 spf)
Compression mode                         : Lossy
Stream size                              : 175 MiB (15%)
Title                                    : Türkçe - Filmbol.org
Language                                 : Turkish
Default                                  : Yes
Forced                                   : Yes

Film Detayları


Ayin

Ayin

Ayin


Film Fragmanı


Film Detayları

Mini 720P İndir



Uptobox ile indir

1Fichier ile indir

1Fichier'den İndiremiyor musun? Tıklayın!


Mega ile indir

MediaFire ile indir

Şuan Offine!
Şuan Offine!
b1oodi Yeni Üye
*
Üye

  • Konular0
  • Mesajlar1
  • Rep puanı 0
çok çok iyi
Şuan Offine!
Şuan Offine!
firatcan140 Süper Üye
***
Super Üye

  • Konular0
  • Mesajlar27
  • Rep puanı 0
etjqwhıqwhqwrwq


Konu ile Alakalı Benzer Konular
Konular Yazar Yorumlar Okunma Son Yorum
Filmin Yayınlanma Tarihi: 2020
Deathstroke Şövalyeler ve Ejderhalar (Deathstroke Knights & Dragons: The Movie) - 2020 - TR+ORG - 720P BroserBros 0 19 , Saat: 18:30
Son Yorum: BroserBros
Filmin Yayınlanma Tarihi: 2019
15 Dakika Savaş (L'intervention) - 2019 - TR+ORG - 720P BroserBros 0 23 , Saat: 17:42
Son Yorum: BroserBros
Filmin Yayınlanma Tarihi: 2020
Sürprizli Gece (The Sleepover) - 2020 - TR+ORG - 720P BroserBros 0 23 , Saat: 16:19
Son Yorum: BroserBros
Filmin Yayınlanma Tarihi: 2020
Feride (Feride) - 2020 - TR+ORG - 720P BroserBros 0 42 22-11-2020, Saat: 20:23
Son Yorum: BroserBros
Filmin Yayınlanma Tarihi: 2019
Gel Babacığına (Come to Daddy) - 2019 - TR+ORG - 720P BroserBros 0 31 22-11-2020, Saat: 17:43
Son Yorum: BroserBros

Hızlı Menü: