Hoşgeldin, Ziyaretçi: Giriş Yap Üye Ol


stats
Adblock'u kapattıysanız tıklayın.
Hoşgeldiniz!
Filmbol'u tercih ettiğiniz için teşekkürler, ancak ablock kullanarak devam edemezsiniz.
Merak etmeyin. Heryerden ardı ardına çıkan reklamlar görmeyeceksiniz :)

Sadece site içi 1 reklam göreceksin ve bu site gezintini etkilemeyecek.
Konuyu Oyla:
  • Derecelendirme: 0/5 - 0 oy
  • 1
  • 2
  • 3
  • 4
  • 5
Title: Ayı Paddington 2 (Paddington 2) Türkçe Dublaj Brrip-Xvid İndir
Gösterim Stili
#1
Filmin Yayınlanma Tarihi: 2017 

indirme türü


Bulut + Premium

vizyon tarihi


12 Ocak 2018

Boyutlar


1,25

diller


[TR]

altyazilar


Yok [Eklenebilir]

Video Format: Avi


Audio Video Interleave (.AVI)

Video Detay


MPEG-4, 1598 Kbps, 1,15 GB

imdb puanı


7,9 / 10,0 / 35,000

süre


103 dakika

Ses Kodek: MP3


MPEG-1 Audio Layer III (MP3)

Ses Detay


128 Kbps, 2 Kanal, 95 Mb

rarsifresi


filmbol.org

Editör Puanı


7,0

Genislik Yukseklik


720x300

sürüm


h263 | Brrip-Xvid



Film Detayları

Artık Brown ailesi ile yaşamakta olan Paddington yerel halkın da sevilen ve popüler bir üyesi olmuştur. Teyzesi Lucy'nin 100. doğum günü için mükemmel hediyeyi almak adına bir dizi garip iş bulup çalışmaktadır. Nihayet hediyeyi almayı başarır, ancak hediye bir anda çalınır. Paddington hediyeyi çalanı bulmak için elinden gelen her şeyi yapacaktır...

Ayı Paddington 2 (Paddington 2) Filmi İmdb'den 86.000 kişi tarafından oylandı ve 7,2 puan aldı. Bu film için editör puanı 7,5 olarak belirlendi. İyi Seyirler!


Teknik Detaylar
Kod:
General
Complete name                            : Paddington.2.2017.BRRip.XviD.TR.Filmbol.avi
Format                                   : AVI
Format/Info                              : Audio Video Interleave
File size                                : 1.25 GiB
Duration                                 : 1 h 43 min
Overall bit rate                         : 1 739 kb/s

Video
ID                                       : 0
Format                                   : MPEG-4 Visual
Format profile                           : Simple@L5
Format settings, BVOP                    : No
Format settings, QPel                    : No
Format settings, GMC                     : No warppoints
Format settings, Matrix                  : Default (H.263)
Codec ID                                 : XVID
Codec ID/Hint                            : XviD
Duration                                 : 1 h 43 min
Bit rate                                 : 1 598 kb/s
Width                                    : 720 pixels
Height                                   : 300 pixels
Display aspect ratio                     : 2.40:1
Frame rate                               : 24.000 FPS
Color space                              : YUV
Chroma subsampling                       : 4:2:0
Bit depth                                : 8 bits
Scan type                                : Progressive
Compression mode                         : Lossy
Bits/(Pixel*Frame)                       : 0.308
Stream size                              : 1.15 GiB (92%)
Writing library                          : Lavc57.107.100

Audio
ID                                       : 1
Format                                   : MPEG Audio
Format version                           : Version 1
Format profile                           : Layer 3
Format settings                          : Joint stereo / MS Stereo
Codec ID                                 : 55
Codec ID/Hint                            : MP3
Duration                                 : 1 h 43 min
Bit rate mode                            : Constant
Bit rate                                 : 128 kb/s
Channel(s)                               : 2 channels
Sampling rate                            : 48.0 kHz
Frame rate                               : 41.667 FPS (1152 SPF)
Compression mode                         : Lossy
Stream size                              : 94.6 MiB (7%)
Alignment                                : Aligned on interleaves
Interleave, duration                     : 24  ms (0.58 video frame)




Film Detayları


Ayi Paddington 2

Ayi Paddington 2

Ayi Paddington 2

Ayi Paddington 2

Ayi Paddington 2



Film Fragmanı


Film Detayları

Brrip İndir


Turbobit İle İndir

Mega linki şuan da gizli. Kullanıma açmak için konuya yorum yapın ve ardından sayfayı yenileyin. Ayrıca bu linki açtığınızda reklamsız olarak erişebileceğinizi unutmayın.

Mega


Uptobox ile indir

Cloud Ru ile indir

 
Cevapla
  


Konu ile Alakalı Benzer Konular
Konular Yazar Yorumlar Okunma Son Yorum
Filmin Yayınlanma Tarihi: 2019 Oyuncak Hikayesi 4 (Toy Story 4) Türkçe Dublaj Brrip Xvid İndir BroserBros 1 70 10-11-2019, Saat: 20:12
Son Yorum: efsanem
Filmin Yayınlanma Tarihi: 2019 Evcil Hayvanların Gizli Yaşamı 2 (Pets 2) Türkçe Dublaj Brrip Xvid İndir BroserBros 0 33 04-11-2019, Saat: 04:07
Son Yorum: BroserBros
Filmin Yayınlanma Tarihi: 2016 Buz Devri 5: Büyük Çarpışma Türkçe Dublaj Brrip-Xvid İndir BroserBros 1 1,934 01-11-2019, Saat: 20:01
Son Yorum: gece_yagmuru
Filmin Yayınlanma Tarihi: 2018 Örümcek Adam: Örümcek Evreninde (Spider-Man) Türkçe Dublaj Brrip Xvid İndir BroserBros 4 268 14-09-2019, Saat: 22:55
Son Yorum: edizshady
Filmin Yayınlanma Tarihi: 2019 Ralph ve İnternet (Ralph Breaks the Internet) Türkçe Dublaj Brrip Xvid İndir BroserBros 1 123 11-09-2019, Saat: 01:47
Son Yorum: Droid Artworx

Hızlı Menü:


Browsing: 1 Ziyaretçi