Filmbol Forum Film İndir BRRip XviD v Ay'da İlk İnsan (First Man) Türkçe Dublaj Brrip Xvid İndir
Filmbol'da moderatör olmak ister misiniz? Bizimle iletişime geçmek için tıklayın!
Ay'da İlk İnsan (First Man) Türkçe Dublaj Brrip Xvid İndir
BroserBros
Ay'da İlk İnsan (First Man) Türkçe Dublaj Brrip Xvid İndir
0
252
  • Derecelendirme: 0/5 - 0 oy
  • 1
  • 2
  • 3
  • 4
  • 5
Konuyu Okuyanlar:1 Ziyaretçi
Şuan Online!
Filmin Yayınlanma Tarihi: 2018 
Şuan Online!
BroserBros Kurucu Admin
*******
Admin

Vizyon Tarihi


19 Ekim 2018

imdb puanı


7,3 / 145,000

süre


141 dakika

Editör Puanı


7,3

Video Format: Avi


Audio Video Interleave (.AVI)

Ses Kodek: MP3


MPEG-1 Audio Layer III (MP3)

sürüm


h263 | Brrip Xvid

Boyutlar


1,38



Ay'da İlk İnsan



Film Detayları

Ay’da İlk İnsan, astronot Neil Armstrong'un NASA temelli aya gidiş görevini konu ediyor. 1969 yılında Apollo 11, Ay’ın yüzeyine dokunduğunda otuz sekiz yaşındaki Amerikalı astronot Neil Armstrong bir efsane oldu. Tarihin en tehlikeli görevlerinden birini üstlenen Neil Armstrong, Ay’a ilk ayak basan insan olmayı başardı. NASA’nın aya ayak basma yolculuğunun hikayesinin anlatıldığı filmde, Neil Armstrong’a ve 1961-1969 yılları arasına odaklanılıyor. Armstrong ve ülkenin ödediği bedellere, yapılan fedakarlıklara yer veren film, NASA ve Apollo 11 ekibinin 1960'larda SSCB'ye karşı uzay yarışını kazanmak için karşı karşıya kaldıkları muazzam baskıyı da seyircilerin gözleri önüne seriyor.

Ay'da İlk İnsan (First Man) Filmi Imdb'den 145,000 kişi tarafından oylandı ve 7,3 puan aldı. Bu film için editör puanı 7,9 olarak belirlendi. İyi Seyirler!


Teknik Detaylar


Kod :
General
Complete name                            : /root/Desktop/8/Ayda.İlk.İnsan.2018.BRRip.XViD.TR.Filmbol.avi
Format                                   : AVI
Format/Info                              : Audio Video Interleave
File size                                : 1.38 GiB
Duration                                 : 2h 20mn
Overall bit rate                         : 1 403 Kbps

Video
ID                                       : 0
Format                                   : MPEG-4 Visual
Format profile                           : Advanced Simple@L5
Format settings, BVOP                    : 2
Format settings, QPel                    : No
Format settings, GMC                     : No warppoints
Format settings, Matrix                  : Default (MPEG)
Codec ID                                 : XVID
Codec ID/Hint                            : XviD
Duration                                 : 2h 20mn
Bit rate                                 : 1 262 Kbps
Width                                    : 720 pixels
Height                                   : 404 pixels
Display aspect ratio                     : 16:9
Frame rate                               : 23.976 (23976/1000) fps
Color space                              : YUV
Chroma subsampling                       : 4:2:0
Bit depth                                : 8 bits
Scan type                                : Progressive
Compression mode                         : Lossy
Bits/(Pixel*Frame)                       : 0.181
Stream size                              : 1.24 GiB (90%)
Writing library                          : XviD 64

Audio
ID                                       : 1
Format                                   : MPEG Audio
Format version                           : Version 1
Format profile                           : Layer 3
Mode                                     : Joint stereo
Mode extension                           : MS Stereo
Codec ID                                 : 55
Codec ID/Hint                            : MP3
Duration                                 : 2h 20mn
Bit rate mode                            : Constant
Bit rate                                 : 128 Kbps
Channel(s)                               : 2 channels
Sampling rate                            : 48.0 KHz
Compression mode                         : Lossy
Stream size                              : 129 MiB (9%)
Alignment                                : Aligned on interleaves
Interleave, duration                     : 24 ms (0.58 video frame)

Film Detayları


Ay'da İlk İnsan

Ay'da İlk İnsan

Ay'da İlk İnsan


Film Fragmanı


Film Detayları

Brrip İndir



Uptobox ile indir

1Fichier ile indir

1Fichier'den İndiremiyor musun? Tıklayın!


Mega ile indir

MediaFire ile indir



Konu ile Alakalı Benzer Konular
Konular Yazar Yorumlar Okunma Son Yorum
Filmin Yayınlanma Tarihi: 2019
Luce (Luce) - 2019 - TR - BRRip XviD BroserBros 0 15 8 saat önce
Son Yorum: BroserBros
Filmin Yayınlanma Tarihi: 2020
Aşka İnan (I Still Believe) - 2020 - TR - BRRip XviD BroserBros 0 14 9 saat önce
Son Yorum: BroserBros
Filmin Yayınlanma Tarihi: 2018
Döndüm Ben (Yerli) - 2018 - TR - BRRip XviD BroserBros 0 35 27-11-2020, Saat: 18:40
Son Yorum: BroserBros
Filmin Yayınlanma Tarihi: 2018
Bana Bir Soygun Yaz 2 (Yerli) - 2018 - TR - BRRip XviD BroserBros 0 27 27-11-2020, Saat: 18:26
Son Yorum: BroserBros
Filmin Yayınlanma Tarihi: 2007
Amerikan Pastası 6: Beta Evi (American Pie: Beta House) - 2007 - TR - BRRip XviD BroserBros 2 247 27-11-2020, Saat: 14:31
Son Yorum: tayyib5731

Hızlı Menü: