Filmbol Forum Film İndir 1080P v Ay'da İlk İnsan (First Man) Türkçe Dublaj BLURAY 1080P İndir
Filmbol'da moderatör olmak ister misiniz? Bizimle iletişime geçmek için tıklayın!
Ay'da İlk İnsan (First Man) Türkçe Dublaj BLURAY 1080P İndir
BroserBros
Ay'da İlk İnsan (First Man) Türkçe Dublaj BLURAY 1080P İndir
4
418
  • Derecelendirme: 0/5 - 0 oy
  • 1
  • 2
  • 3
  • 4
  • 5
Konuyu Okuyanlar:1 Ziyaretçi
Şuan Online!
Filmin Yayınlanma Tarihi: 2018 
Şuan Online!
BroserBros Kurucu Admin
*******
Admin

Vizyon Tarihi


19 Ekim 2018

imdb puanı


7,3 / 145,000

süre


141 dakika

Editör Puanı


7,3

Video Format: Mkv


Matroska (.MKV)

Ses Kodek: AC3


Audio Coding 3 (AC3)

sürüm


x264 | 1080P | BLURAY

Boyutlar


2,31



Ay'da İlk İnsan



Film Detayları

Ay’da İlk İnsan, astronot Neil Armstrong'un NASA temelli aya gidiş görevini konu ediyor. 1969 yılında Apollo 11, Ay’ın yüzeyine dokunduğunda otuz sekiz yaşındaki Amerikalı astronot Neil Armstrong bir efsane oldu. Tarihin en tehlikeli görevlerinden birini üstlenen Neil Armstrong, Ay’a ilk ayak basan insan olmayı başardı. NASA’nın aya ayak basma yolculuğunun hikayesinin anlatıldığı filmde, Neil Armstrong’a ve 1961-1969 yılları arasına odaklanılıyor. Armstrong ve ülkenin ödediği bedellere, yapılan fedakarlıklara yer veren film, NASA ve Apollo 11 ekibinin 1960'larda SSCB'ye karşı uzay yarışını kazanmak için karşı karşıya kaldıkları muazzam baskıyı da seyircilerin gözleri önüne seriyor.

Ay'da İlk İnsan (First Man) Filmi Imdb'den 145,000 kişi tarafından oylandı ve 7,3 puan aldı. Bu film için editör puanı 7,9 olarak belirlendi. İyi Seyirler!


Teknik Detaylar


Kod :
General
Unique ID                                : 68487239739034345722255061227007408708 (0x3386299EFC687D450B8694859F687A44)
Complete name                            : /root/Desktop/8/Ayda.İlk.İnsan.2018.1080p.BLURAY.x264.TR.Filmbol.mkv
Format                                   : Matroska
Format version                           : Version 4 / Version 2
File size                                : 2.31 GiB
Duration                                 : 2h 21mn
Overall bit rate                         : 2 344 Kbps
Movie name                               : Ayda İlk İnsan (2018) - Filmbol.org
Encoded date                             : UTC 2019-12-24 20:24:09
Writing application                      : mkvmerge v35.0.0 ('All The Love In The World') 64-bit
Writing library                          : libebml v1.3.9 + libmatroska v1.5.2

Video
ID                                       : 1
Format                                   : AVC
Format/Info                              : Advanced Video Codec
Format profile                           : High@L4.1
Format settings, CABAC                   : Yes
Format settings, ReFrames                : 4 frames
Codec ID                                 : V_MPEG4/ISO/AVC
Duration                                 : 2h 20mn
Bit rate                                 : 2 150 Kbps
Width                                    : 1 920 pixels
Height                                   : 800 pixels
Display aspect ratio                     : 2.40:1
Frame rate mode                          : Constant
Frame rate                               : 23.976 (24000/1001) fps
Color space                              : YUV
Chroma subsampling                       : 4:2:0
Bit depth                                : 8 bits
Scan type                                : Progressive
Bits/(Pixel*Frame)                       : 0.058
Stream size                              : 2.12 GiB (92%)
Title                                    : 1080P - Filmbol.org
Writing library                          : x264 core 152
Encoding settings                        : cabac=1 / ref=4 / deblock=1:-1:-1 / analyse=0x3:0x133 / me=umh / subme=9 / psy=1 / psy_rd=1.00:0.15 / mixed_ref=1 / me_range=24 / chroma_me=1 / trellis=2 / 8x8dct=1 / cqm=0 / deadzone=21,11 / fast_pskip=0 / chroma_qp_offset=-3 / threads=12 / lookahead_threads=1 / sliced_threads=0 / nr=0 / decimate=1 / interlaced=0 / bluray_compat=0 / constrained_intra=0 / bframes=3 / b_pyramid=2 / b_adapt=2 / b_bias=0 / direct=3 / weightb=1 / open_gop=0 / weightp=2 / keyint=250 / keyint_min=23 / scenecut=40 / intra_refresh=0 / rc_lookahead=60 / rc=2pass / mbtree=1 / bitrate=2150 / ratetol=1.0 / qcomp=0.60 / qpmin=0 / qpmax=69 / qpstep=4 / cplxblur=20.0 / qblur=0.5 / vbv_maxrate=31250 / vbv_bufsize=31250 / nal_hrd=none / filler=0 / ip_ratio=1.40 / aq=1:1.00
Default                                  : Yes
Forced                                   : No

Audio
ID                                       : 2
Format                                   : AC-3
Format/Info                              : Audio Coding 3
Mode extension                           : CM (complete main)
Format settings, Endianness              : Big
Codec ID                                 : A_AC3
Duration                                 : 2h 21mn
Bit rate mode                            : Constant
Bit rate                                 : 192 Kbps
Channel(s)                               : 2 channels
Channel positions                        : Front: L R
Sampling rate                            : 48.0 KHz
Frame rate                               : 31.250 fps (1536 spf)
Compression mode                         : Lossy
Stream size                              : 194 MiB (8%)
Title                                    : Türkçe - Filmbol.org
Language                                 : Turkish
Default                                  : Yes
Forced                                   : No

Film Detayları


Ay'da İlk İnsan

Ay'da İlk İnsan

Ay'da İlk İnsan


Film Fragmanı


Film Detayları

Mini 1080P İndir



Uptobox ile indir

1Fichier ile indir

1Fichier'den İndiremiyor musun? Tıklayın!


Mega ile indir

MediaFire ile indir

Şuan Offine!
Şuan Offine!
ahmetyee1 Süper Üye
***
Super Üye

  • Konular3
  • Mesajlar54
  • Rep puanı 0
idare eder yani
Şuan Offine!
Şuan Offine!
atunga55 Yeni Üye
*
Üye

  • Konular0
  • Mesajlar4
  • Rep puanı 0
teşekkürler
Şuan Offine!
Şuan Offine!
tolga00 Uzman Üye
**
Uzman Üye

  • Konular0
  • Mesajlar8
  • Rep puanı 0
bakalım nasılmış?
Şuan Offine!
Şuan Offine!
ersoyhan Yeni Üye
*
Üye

  • Konular0
  • Mesajlar4
  • Rep puanı 0
qwert


Konu ile Alakalı Benzer Konular
Konular Yazar Yorumlar Okunma Son Yorum
Filmin Yayınlanma Tarihi: 2020
Deathstroke Şövalyeler ve Ejderhalar (Deathstroke Knights & Dragons: The Movie) - 2020 - TR+ORG - 1080P BroserBros 0 18 , Saat: 18:31
Son Yorum: BroserBros
Filmin Yayınlanma Tarihi: 2019
15 Dakika Savaş (L'intervention) - 2019 - TR+ORG - 1080P BroserBros 0 19 , Saat: 17:42
Son Yorum: BroserBros
Filmin Yayınlanma Tarihi: 2020
Sürprizli Gece (The Sleepover) - 2020 - TR+ORG - 1080P BroserBros 0 20 , Saat: 16:19
Son Yorum: BroserBros
Filmin Yayınlanma Tarihi: 2020
Feride (Feride) - 2020 - TR+ORG - 1080P BroserBros 0 48 22-11-2020, Saat: 20:24
Son Yorum: BroserBros
Filmin Yayınlanma Tarihi: 2019
Gel Babacığına (Come to Daddy) - 2019 - TR+ORG - 1080P BroserBros 0 33 22-11-2020, Saat: 17:43
Son Yorum: BroserBros

Hızlı Menü: