Filmbol Forum Film İndir 720P v Avengers: Endgame (2019) Türkçe Dublaj BLURAY m720P İndir
Filmbol'da moderatör olmak ister misiniz? Bizimle iletişime geçmek için tıklayın!
Avengers: Endgame (2019) Türkçe Dublaj BLURAY m720P İndir
BroserBros
Avengers: Endgame (2019) Türkçe Dublaj BLURAY m720P İndir
25
2180
  • Derecelendirme: 0/5 - 0 oy
  • 1
  • 2
  • 3
  • 4
  • 5
Konuyu Okuyanlar:1 Ziyaretçi
Şuan Online!
Filmin Yayınlanma Tarihi: 2019 
Şuan Online!
BroserBros Kurucu Admin
*******
Admin

indirme türü


Bulut + Premium

Vizyon Tarihi


25 Nisan 2019

Boyutlar


1,75

diller


[TR]

altyazilar


Yok [Eklenebilir]

Video Format: Mkv


Matroska (.MKV)

Video Detay


MPEG-4, 1000 Kbps, 1,27GB

imdb puanı


8,6 / 10,0 / 530,000

süre


181 dakika

Ses Kodek: AC3


Audio Coding 3 (AC3)

Ses Detay


384 Kbps, 6 Kanal, 498 Mb

Editör Puanı


9,0

Genislik Yukseklik


1280-534

sürüm


x264 | 720P




Avengers Endgame


Film Detayları

"Avengers Infinity War"un ardından pek çok süper kahraman küle dönüşmüştür. Doktor Strange, Gamora, Drax, Mantis, genç Örümcek Adam, Black Panther, Bucky Barnes, Groot, Scarlet Witch, Vision, Star Lord, Maria Hill, The Wasp ve Nick Fury gibi pek çok kahraman, Thanos'un Sonsuzluk Eldiveni'ni ele geçirmesi ve kendi dengesini kurması yüzünden yok olmuştur ve dünya umutsuz haldedir. Dünya üzerinde kalan Black Widow, Kaptan Amerika, Thor ve Hulk kendi yaslarını tutmaktayken, Iron ve Nebula ise kontrol edemedikleri bir uzay gemisinin içinde, uzay boşluğunda sürüklenmektedirler. Süper kahramanlar takımı için işler pek de iyi görünmemektedir. Ancak Kuantum Bölgesi'nden çıkmanın bir yolunu bularak Avengers ekibinin kalan üyelerine giden Ant-Man, yeni bir umut ışığı olacaktır. Daha önce var olduğunu bilmedikleri bölgeler, kahramanlar ve evrenlerin varlığını öğrenen ekip, Thanos'un kurduğu bu çarpık dengeyi değiştirmek ve kendilerinden alınanı geri getirmek için hayatlarının en büyük mücadelesine girişeceklerdir. Hepsi kişisel olarak önem verdikleri şeyleri kaybetmiş olan kahramanlarımız için intikam vakti gelmiştir.
 
Avengers: Endgame (2019) Filmi Imdb'den 530,000 kişi tarafından oylandı ve 8,6 puan aldı. Bu film için editör puanı 9,0 olarak belirlendi. İyi Seyirler!


Teknik Detaylar


Kod :
General
Complete name                            : Avengers.Endgame.2019.M720P.BLURAY.x264.TR.Filmbol.mkv
Format                                   : Matroska
Format version                           : Version 4 / Version 2
File size                                : 1.75 GiB
Duration                                 : 3h 1mn
Overall bit rate                         : 1 386 Kbps
Encoded date                             : UTC 2019-08-20 07:50:43
Writing application                      : mkvmerge v35.0.0 ('All The Love In The World') 64-bit
Writing library                          : libebml v1.3.9 + libmatroska v1.5.2

Video
ID                                       : 1
Format                                   : AVC
Format/Info                              : Advanced Video Codec
Format profile                           : High@L4.1
Format settings, CABAC                   : Yes
Format settings, ReFrames                : 4 frames
Codec ID                                 : V_MPEG4/ISO/AVC
Duration                                 : 3h 1mn
Bit rate                                 : 1 000 Kbps
Width                                    : 1 280 pixels
Height                                   : 534 pixels
Display aspect ratio                     : 2.40:1
Original display aspect ratio            : 2.40:1
Frame rate mode                          : Constant
Frame rate                               : 23.976 (24000/1001) fps
Color space                              : YUV
Chroma subsampling                       : 4:2:0
Bit depth                                : 8 bits
Scan type                                : Progressive
Bits/(Pixel*Frame)                       : 0.061
Stream size                              : 1.27 GiB (72%)
Writing library                          : x264 core 157
Default                                  : Yes
Forced                                   : No

Audio
ID                                       : 2
Format                                   : AC-3
Format/Info                              : Audio Coding 3
Mode extension                           : CM (complete main)
Format settings, Endianness              : Big
Codec ID                                 : A_AC3
Duration                                 : 3h 1mn
Bit rate mode                            : Constant
Bit rate                                 : 384 Kbps
Channel(s)                               : 6 channels
Channel positions                        : Front: L C R, Side: L R, LFE
Sampling rate                            : 48.0 KHz
Frame rate                               : 31.250 fps (1536 spf)
Compression mode                         : Lossy
Delay relative to video                  : 1s 0ms
Stream size                              : 498 MiB (28%)
Language                                 : Turkish
Default                                  : Yes
Forced                                   : No


Film Detayları


Avengers Endgame

Avengers Endgame

Avengers Endgame


Film Fragmanı


Film Detayları

Mini 720P İndir


Uptobox ile indir

LetsUpload ile indir


Mega ile indir

f0v1
Şuan Offine!
Şuan Offine!
berkan Uzman Üye
**
Uzman Üye

  • Konular0
  • Mesajlar6
  • Rep puanı 0
çok güzel bir film ama inşallah sinema çekimi değildir
Şuan Online!
Şuan Online!
BroserBros Kurucu Admin
*******
Admin

Merhaba berkan, sinema çekimi yayınlar yapmıyoruz. Linkler hazırlanmak üzere, lütfen 10 dakika bekle. Teşekkürler
Şuan Offine!
Şuan Offine!
Yunosal31 Yeni Üye
*
Üye

  • Konular0
  • Mesajlar3
  • Rep puanı 0
Naber
Şuan Offine!
Filmin Yayınlanma Tarihi: 2019 
Şuan Offine!
Vergte Yeni Üye
*
Üye

  • Konular0
  • Mesajlar2
  • Rep puanı 0
Film çok güzel tekrar buradan izleyeceğim.
Şuan Offine!
Şuan Offine!
Arif DEĞERCAN Süper Üye
***
Super Üye

  • Konular0
  • Mesajlar33
  • Rep puanı 0
Kaç aydır bu filmi bekliyordum sonunda geldi..
Şuan Offine!
Şuan Offine!
Leo12 Uzman Üye
**
Uzman Üye

  • Konular0
  • Mesajlar7
  • Rep puanı 0
Tesekkurler
Şuan Offine!
Şuan Offine!
agresif Uzman Üye
**
Uzman Üye

  • Konular0
  • Mesajlar19
  • Rep puanı 0
izleyelim bakalım
Şuan Offine!
Şuan Offine!
Selocan Uzman Üye
**
Uzman Üye

  • Konular0
  • Mesajlar14
  • Rep puanı 0
Film eminim güzeldir, teşekkürer.
Şuan Offine!
Şuan Offine!
Denyomt Yeni Üye
*
Üye

  • Konular0
  • Mesajlar1
  • Rep puanı 0
Film cok güzel tavsiye ederim


Konu ile Alakalı Benzer Konular
Konular Yazar Yorumlar Okunma Son Yorum
Filmin Yayınlanma Tarihi: 2019
Luce (Luce) - 2019 - TR+ORG - 720P BroserBros 0 14 8 saat önce
Son Yorum: BroserBros
Filmin Yayınlanma Tarihi: 2019
Hain (The Traitor / Il traditore) - 2019 - TR+ORG - 720P BroserBros 0 56 26-11-2020, Saat: 16:04
Son Yorum: BroserBros
Filmin Yayınlanma Tarihi: 2019
Ibiza (Ibiza) - 2019 - TR+ORG - 720P BroserBros 0 32 26-11-2020, Saat: 14:56
Son Yorum: BroserBros
Filmin Yayınlanma Tarihi: 2019
Geri Sayım (Countdown) - 2019 - TR+ORG - 720P BroserBros 0 41 25-11-2020, Saat: 15:49
Son Yorum: BroserBros
Filmin Yayınlanma Tarihi: 2019
15 Dakika Savaş (L'intervention) - 2019 - TR+ORG - 720P BroserBros 0 57 23-11-2020, Saat: 17:42
Son Yorum: BroserBros

Hızlı Menü: