Filmbol Forum Film İndir BRRip XviD v Atlantique (Atlantics) Türkçe Dublaj Brrip Xvid İndir
Filmbol'da moderatör olmak ister misiniz? Bizimle iletişime geçmek için tıklayın!
Atlantique (Atlantics) Türkçe Dublaj Brrip Xvid İndir
BroserBros
Atlantique (Atlantics) Türkçe Dublaj Brrip Xvid İndir
1
622
  • Derecelendirme: 0/5 - 0 oy
  • 1
  • 2
  • 3
  • 4
  • 5
Konuyu Okuyanlar:1 Ziyaretçi
Şuan Online!
Filmin Yayınlanma Tarihi: 2019 
Şuan Online!
BroserBros Kurucu Admin
*******
Admin

indirme türü


Bulut + Premium

Vizyon Tarihi


02 Kasım 2019

Boyutlar


0,91

diller


[TR]

altyazilar


KISIM [Eklenebilir]

Video Format: Avi


Audio Video Interleave (.AVI)

Video Detay


MPEG-4, 1067 Kbps, 0,81GB

imdb puanı


6,9 / 10,0 / 1,500

süre


106 dakika

Ses Kodek: MP3


MPEG-1 Audio Layer III (MP3)

Ses Detay


128 Kbps, 2 Kanal, 98Mb

Editör Puanı


6,0

Genislik Yukseklik


720-404

sürüm


h263 | Brrip Xvid




Atlantics


Film Detayları

Atlantique, daha iyi bir gelecek için ülkesinden ayrılmaya karar veren işçi bir adam ve sevgilisinin hikayesini konu ediyor. Popüler bir Dakar banliyösüne inşa edilen fütüristik bir kulede çalışan işçiler, aylarca emeklerinin karşılığını alamadan çalışır. Yaşadıkları sıkıntılara son vermek isteyen işçiler, daha iyi bir gelecek için ülkeyi terk etmeyi planlar. Ülkeden ayrılmayı düşünenler arasında genç bir kadın olan Ada’nın sevgilisi Suleiman da vardır. Çift birbirlerini sevip, birlikte bir gelecek düşleseler de Ada başka bir adamla evlendirilmek istenir. Ada için karar verilince de kısa sürede düğün hazırlıkları yapılır. Bu sırada, Suleiman ve bir grup işçi hayallerinin peşinden gitmeye karar verir ve ülkeyi terk eder. Ancak Ada’nın düğününün başladığı sırada büyük bir yangın çıkar. Genç kız, her yere yayılmakta olan bu ateşin kendisini kurtarmak için geri dönen Suleiman tarafından çıkarıldığını düşünmeye başlar.

Atlantique (Atlantics) Filmi Imdb'den 1,500 kişi tarafından oylandı ve 6,9 puan aldı. Bu film için editör puanı 6,0olarak belirlendi. İyi Seyirler!


Teknik Detaylar


Kod :
General
Complete name                            : Atlantique.2019.HDRip.XViD.TR.Filmbol.avi
Format                                   : AVI
Format/Info                              : Audio Video Interleave
File size                                : 918 MiB
Duration                                 : 1h 46mn
Overall bit rate                         : 1 208 Kbps

Video
ID                                       : 0
Format                                   : MPEG-4 Visual
Format profile                           : Advanced Simple@L5
Format settings, BVOP                    : 2
Format settings, QPel                    : No
Format settings, GMC                     : No warppoints
Format settings, Matrix                  : Default (MPEG)
Codec ID                                 : XVID
Codec ID/Hint                            : XviD
Duration                                 : 1h 46mn
Bit rate                                 : 1 067 Kbps
Width                                    : 720 pixels
Height                                   : 404 pixels
Display aspect ratio                     : 16:9
Frame rate                               : 24.000 fps
Color space                              : YUV
Chroma subsampling                       : 4:2:0
Bit depth                                : 8 bits
Scan type                                : Progressive
Compression mode                         : Lossy
Bits/(Pixel*Frame)                       : 0.153
Stream size                              : 811 MiB (88%)
Writing library                          : XviD 64

Audio
ID                                       : 1
Format                                   : MPEG Audio
Format version                           : Version 1
Format profile                           : Layer 3
Mode                                     : Joint stereo
Mode extension                           : MS Stereo
Codec ID                                 : 55
Codec ID/Hint                            : MP3
Duration                                 : 1h 46mn
Bit rate mode                            : Constant
Bit rate                                 : 128 Kbps
Channel(s)                               : 2 channels
Sampling rate                            : 48.0 KHz
Compression mode                         : Lossy
Stream size                              : 97.3 MiB (11%)
Alignment                                : Aligned on interleaves
Interleave, duration                     : 24 ms (0.58 video frame)

Film Detayları


Atlantics

Atlantics

Atlantics


Film Fragmanı


Film Detayları

Brrip İndir



Uptobox ile indir

1Fichier ile indir

1Fichier'den İndiremiyor musun? Tıklayın!


LetsUpload ile indir

Mega ile indir

MediaFire ile indir

Şuan Offine!
Şuan Offine!
komador06 Süper Üye
***
Super Üye

  • Konular0
  • Mesajlar28
  • Rep puanı 0
teşekkürler..


Konu ile Alakalı Benzer Konular
Konular Yazar Yorumlar Okunma Son Yorum
Filmin Yayınlanma Tarihi: 2020
Deathstroke Şövalyeler ve Ejderhalar (Deathstroke Knights & Dragons: The Movie) - 2020 - TR - BRRip XviD BroserBros 0 36 23-11-2020, Saat: 18:30
Son Yorum: BroserBros
Filmin Yayınlanma Tarihi: 2019
15 Dakika Savaş (L'intervention) - 2019 - TR - BRRip XviD BroserBros 0 35 23-11-2020, Saat: 17:42
Son Yorum: BroserBros
Filmin Yayınlanma Tarihi: 2020
Sürprizli Gece (The Sleepover) - 2020 - TR - BRRip XviD BroserBros 0 37 23-11-2020, Saat: 16:18
Son Yorum: BroserBros
Filmin Yayınlanma Tarihi: 2020
Feride (Feride) - 2020 - TR - BRRip XviD BroserBros 0 37 22-11-2020, Saat: 17:58
Son Yorum: BroserBros
Filmin Yayınlanma Tarihi: 2019
Gel Babacığına (Come to Daddy) - 2019 - TR - BRRip XviD BroserBros 0 32 22-11-2020, Saat: 17:43
Son Yorum: BroserBros

Hızlı Menü: