Filmbol Forum Film İndir 1080P v Assassin's Creed (Suikastçinin İnancı) - 2016 - TR+ORG - 1080P
Moderatör Alımları Başladı! Başvuru yapmak için tıklayın.
Filmbol Premium'da %50'e varan indirim fırsatı!
Assassin's Creed (Suikastçinin İnancı) - 2016 - TR+ORG - 1080P
BroserBros
Assassin's Creed (Suikastçinin İnancı) - 2016 - TR+ORG - 1080P
0
140
  • Derecelendirme: 0/5 - 0 oy
  • 1
  • 2
  • 3
  • 4
  • 5
Konuyu Okuyanlar:1 Ziyaretçi
Şuan Offine!
Filmin Yayınlanma Tarihi: 2016 
Şuan Offine!
BroserBros Kurucu Admin
*******
Admin

Vizyon Tarihi


23 Aralık 2016

imdb puanı


5,7 / 180,000

süre


115 dakika

Editör Puanı


7,2 / 10

Video Format: Mkv


Matroska (.MKV)

Ses Kodek: AC3


Audio Coding 3 (AC3)

sürüm


x264 | 1080P | BluRay

Boyutlar


2,13 GB



 Assassin's Creed



Geçmişden edineceğini bilgiler ile yolunu çizen ve yeni dünya düzenini oluşturmaya çalışan bir şirket, suikastçi geçmişi olan kişinin genetik kodunu kırarak geçmişine kapı aralar. Callum Lynch, suikastçi soyundan gelmektedir ve şirket genetik kodunu başarıyla kırmıştır. Şimdi Callum atalarının tüm hafızasına sahip olacaktır...

Assassin's Creed (2016) (Suikastçinin İnancı) Filmi Imdb'den 180,000 kişi tarafından oylandı ve 5,7 puan aldı. Bu film için editör puanı 7,2 olarak belirlendi. İyi Seyirler!

Teknik Detaylar

Kod :
General
Unique ID                                : 263721748341199951030126452462889513459 (0xC666F611F76D2F83D9B049DA2498B1F3)
Complete name                            : /root/Desktop/7/Assassin's.Creed.2016.1080p.BluRay.x264.TR.ENG.Filmbol.mkv
Format                                  : Matroska
Format version                          : Version 4 / Version 2
File size                                : 2.13 GiB
Duration                                : 1h 55mn
Overall bit rate                        : 2 640 Kbps
Movie name                              : Assassin's Creed - 2016 | Filmbol.org
Encoded date                            : UTC 2020-05-15 12:30:52
Writing application                      : mkvmerge v8.8.0 ('Wind at my back') 64bit
Writing library                          : libebml v1.3.3 + libmatroska v1.4.4

Video
ID                                      : 1
Format                                  : AVC
Format/Info                              : Advanced Video Codec
Format profile                          : High@L4.1
Format settings, CABAC                  : Yes
Format settings, ReFrames                : 4 frames
Codec ID                                : V_MPEG4/ISO/AVC
Duration                                : 1h 55mn
Bit rate                                : 2 050 Kbps
Width                                    : 1 920 pixels
Height                                  : 800 pixels
Display aspect ratio                    : 2.40:1
Frame rate mode                          : Constant
Frame rate                              : 23.976 fps
Color space                              : YUV
Chroma subsampling                      : 4:2:0
Bit depth                                : 8 bits
Scan type                                : Progressive
Bits/(Pixel*Frame)                      : 0.056
Stream size                              : 1.65 GiB (78%)
Title                                    : 1080P - Filmbol.org
Writing library                          : x264 core 148
Encoding settings                        : cabac=1 / ref=4 / deblock=1:-1:-1 / analyse=0x3:0x133 / me=umh / subme=9 / psy=1 / psy_rd=1.00:0.15 / mixed_ref=1 / me_range=24 / chroma_me=1 / trellis=2 / 8x8dct=1 / cqm=0 / deadzone=21,11 / fast_pskip=0 / chroma_qp_offset=-3 / threads=12 / lookahead_threads=1 / sliced_threads=0 / nr=0 / decimate=1 / interlaced=0 / bluray_compat=0 / constrained_intra=0 / bframes=3 / b_pyramid=2 / b_adapt=2 / b_bias=0 / direct=3 / weightb=1 / open_gop=0 / weightp=2 / keyint=250 / keyint_min=23 / scenecut=40 / intra_refresh=0 / rc_lookahead=60 / rc=2pass / mbtree=1 / bitrate=2050 / ratetol=1.0 / qcomp=0.60 / qpmin=0 / qpmax=69 / qpstep=4 / cplxblur=20.0 / qblur=0.5 / vbv_maxrate=31250 / vbv_bufsize=31250 / nal_hrd=none / filler=0 / ip_ratio=1.40 / aq=1:1.00
Default                                  : Yes
Forced                                  : No

Audio #1
ID                                      : 2
Format                                  : AC-3
Format/Info                              : Audio Coding 3
Mode extension                          : CM (complete main)
Format settings, Endianness              : Big
Codec ID                                : A_AC3
Duration                                : 1h 55mn
Bit rate mode                            : Constant
Bit rate                                : 448 Kbps
Channel(s)                              : 6 channels
Channel positions                        : Front: L C R, Side: L R, LFE
Sampling rate                            : 48.0 KHz
Frame rate                              : 31.250 fps (1536 spf)
Compression mode                        : Lossy
Stream size                              : 370 MiB (17%)
Title                                    : Türkçe - Filmbol.org
Default                                  : Yes
Forced                                  : Yes

Audio #2
ID                                      : 3
Format                                  : AAC
Format/Info                              : Advanced Audio Codec
Format profile                          : LC
Codec ID                                : A_AAC
Duration                                : 1h 55mn
Bit rate                                : 132 Kbps
Channel(s)                              : 2 channels
Channel positions                        : Front: L R
Sampling rate                            : 48.0 KHz
Frame rate                              : 46.875 fps (1024 spf)
Compression mode                        : Lossy
Stream size                              : 111 MiB (5%)
Title                                    : İngilizce - Filmbol.org
Default                                  : No
Forced                                  : No

Text
ID                                      : 4
Format                                  : PGS
Muxing mode                              : zlib
Codec ID                                : S_HDMV/PGS
Codec ID/Info                            : Picture based subtitle format used on BDs/HD-DVDs
Duration                                : 1h 53mn
Bit rate                                : 4 306 bps
Count of elements                        : 1326
Stream size                              : 3.51 MiB (0%)
Title                                    : Türkçe Altyazı - Filmbol.org
Default                                  : Yes
Forced                                  : No

Film Detayları


 Assassin's Creed

 Assassin's Creed

 Assassin's Creed


Film Fragmanı


Film Detayları

Uptobox ile indir

1Fichier ile indir

1Fichier'den İndiremiyor musun? Tıklayın!


Mega ile indir

Bunun için üzgünüz ancak, bu linke sadece premium üyeler erişebilir.

Filmbol Cloud



Konu ile Alakalı Benzer Konular
Konular Yazar Yorumlar Okunma Son Yorum
Filmin Yayınlanma Tarihi: 2019
X-Men: Dark Phoenix (2019) Türkçe Dublaj BLURAY 1080P İndir BroserBros 38 2,705 09-10-2020, Saat: 23:51
Son Yorum: egzantirik7
Filmin Yayınlanma Tarihi: 2019
Rahat Kız (An Easy Girl) - 2019 - TR+ORG - 1080P BroserBros 0 225 08-10-2020, Saat: 19:35
Son Yorum: BroserBros
Filmin Yayınlanma Tarihi: 2020
Mavi Korku 3 (Deep Blue Sea 3) - 2020 - TR+ORG - 1080P BroserBros 0 334 03-10-2020, Saat: 21:12
Son Yorum: BroserBros
Filmin Yayınlanma Tarihi: 2018
Fast Color: Gücünü Serbest Bırak (Fast Color) - 2018 - TR+ORG - 1080P BroserBros 0 323 03-10-2020, Saat: 16:47
Son Yorum: BroserBros
Filmin Yayınlanma Tarihi: 2019
Benim Şapşik Köpeğim (Mon chien Stupide) - 2019 - TR+ORG - 1080P BroserBros 0 155 02-10-2020, Saat: 21:35
Son Yorum: BroserBros

Hızlı Menü: