Filmbol Forum Film İndir BRRip XviD v Assassin's Creed (Suikastçinin İnancı) - 2016 - TR - BRRip XviD
Moderatör Alımları Başladı! Başvuru yapmak için tıklayın.
Filmbol Premium'da %50'e varan indirim fırsatı!
Assassin's Creed (Suikastçinin İnancı) - 2016 - TR - BRRip XviD
BroserBros
Assassin's Creed (Suikastçinin İnancı) - 2016 - TR - BRRip XviD
0
133
  • Derecelendirme: 0/5 - 0 oy
  • 1
  • 2
  • 3
  • 4
  • 5
Konuyu Okuyanlar:1 Ziyaretçi
Şuan Offine!
Filmin Yayınlanma Tarihi: 2016 
Şuan Offine!
BroserBros Kurucu Admin
*******
Admin

Vizyon Tarihi


23 Aralık 2016

imdb puanı


5,7 / 180,000

süre


115 dakika

Editör Puanı


7,2 / 10

Video Format: Avi


Audio Video Interleave (.AVI)

Ses Kodek: MP3


MPEG-1 Audio Layer III (MP3)

sürüm


h263 | BRRip XviD

Boyutlar


1,15 GB



 Assassin's Creed



Geçmişden edineceğini bilgiler ile yolunu çizen ve yeni dünya düzenini oluşturmaya çalışan bir şirket, suikastçi geçmişi olan kişinin genetik kodunu kırarak geçmişine kapı aralar. Callum Lynch, suikastçi soyundan gelmektedir ve şirket genetik kodunu başarıyla kırmıştır. Şimdi Callum atalarının tüm hafızasına sahip olacaktır...

Assassin's Creed (2016) (Suikastçinin İnancı) Filmi Imdb'den 180,000 kişi tarafından oylandı ve 5,7 puan aldı. Bu film için editör puanı 7,2 olarak belirlendi. İyi Seyirler!

Teknik Detaylar

Kod :
General
Complete name                            : /root/Desktop/7/Assassins.Creed.2016.BRRip.XviD.TR.Filmbol.avi
Format                                  : AVI
Format/Info                              : Audio Video Interleave
File size                                : 1.15 GiB
Duration                                : 1h 55mn
Overall bit rate                        : 1 429 Kbps
Writing application                      : VirtualDubMod 1.5.10.2 (build 2542/release) VirtualDubMod build 2542/release

Video
ID                                      : 0
Format                                  : MPEG-4 Visual
Format profile                          : Advanced Simple@L5
Format settings, BVOP                    : 2
Format settings, QPel                    : No
Format settings, GMC                    : No warppoints
Format settings, Matrix                  : Default (H.263)
Muxing mode                              : Packed bitstream
Codec ID                                : XVID
Codec ID/Hint                            : XviD
Duration                                : 1h 55mn
Bit rate                                : 1 291 Kbps
Width                                    : 720 pixels
Height                                  : 304 pixels
Display aspect ratio                    : 2.35:1
Frame rate                              : 23.976 (23976/1000) fps
Color space                              : YUV
Chroma subsampling                      : 4:2:0
Bit depth                                : 8 bits
Scan type                                : Progressive
Compression mode                        : Lossy
Bits/(Pixel*Frame)                      : 0.246
Stream size                              : 1.04 GiB (90%)
Writing library                          : XviD 66

Audio
ID                                      : 1
Format                                  : MPEG Audio
Format version                          : Version 1
Format profile                          : Layer 3
Mode                                    : Joint stereo
Mode extension                          : MS Stereo
Codec ID                                : 55
Codec ID/Hint                            : MP3
Duration                                : 1h 55mn
Bit rate mode                            : Constant
Bit rate                                : 128 Kbps
Channel(s)                              : 2 channels
Sampling rate                            : 48.0 KHz
Compression mode                        : Lossy
Stream size                              : 106 MiB (9%)
Alignment                                : Split accross interleaves
Interleave, duration                    : 42 ms (1.00 video frame)
Interleave, preload duration            : 500 ms
Writing library                          : LAME3.99.5
Language                                : Undefined

Film Detayları


 Assassin's Creed

 Assassin's Creed

 Assassin's Creed


Film Fragmanı


Film Detayları


Uptobox ile indir

1Fichier ile indir

1Fichier'den İndiremiyor musun? Tıklayın!


Mega ile indir

Bunun için üzgünüz ancak, bu linke sadece premium üyeler erişebilir.

Filmbol Cloud



Konu ile Alakalı Benzer Konular
Konular Yazar Yorumlar Okunma Son Yorum
Filmin Yayınlanma Tarihi: 2014
Yarının Sınırında (Edge of Tomorrow) - 2014 - TR - BRRip XviD BroserBros 1 141 20-10-2020, Saat: 15:13
Son Yorum: sectechno
Filmin Yayınlanma Tarihi: 2020
Holly Slept Over (Holly Slept Over) - 2020 - TR - BRRip XviD BroserBros 0 454 08-10-2020, Saat: 20:08
Son Yorum: BroserBros
Filmin Yayınlanma Tarihi: 2019
Rahat Kız (An Easy Girl) - 2019 - TR - BRRip XviD BroserBros 0 469 08-10-2020, Saat: 19:34
Son Yorum: BroserBros
Filmin Yayınlanma Tarihi: 2020
Mavi Korku 3 (Deep Blue Sea 3) - 2020 - TR - BRRip XviD BroserBros 0 556 03-10-2020, Saat: 21:11
Son Yorum: BroserBros
Filmin Yayınlanma Tarihi: 2018
Fast Color: Gücünü Serbest Bırak (Fast Color) - 2018 - TR - BRRip XviD BroserBros 0 133 03-10-2020, Saat: 16:46
Son Yorum: BroserBros

Hızlı Menü: