Filmbol Forum Film İndir 720P v Aslan Kral (The Lion King) Türkçe Dublaj BLURAY m720P İndir
Mega linklerinin şikayet edilmemesi için global erişime kapatıp sadece yorum yapanlara açıyoruz. Bu linkleri gizleme işlemini mecburen yapıyoruz ve yorum yapmanızın siteye değil size faydası vardır. Teşekürler yazmayı çok görüp, Random/Spam mesajlar atarak Mega linklerini açmaya çalışan kullanıcılara önce süresiz ban, devam ederse IP ban atacağız.
Filmbol'da moderatör olmak ister misiniz? Bizimle iletişime geçmek için tıklayın!
Aslan Kral (The Lion King) Türkçe Dublaj BLURAY m720P İndir
BroserBros
Aslan Kral (The Lion King) Türkçe Dublaj BLURAY m720P İndir
23
4073
  • Derecelendirme: 0/5 - 0 oy
  • 1
  • 2
  • 3
  • 4
  • 5
Konuyu Okuyanlar:1 Ziyaretçi
Şuan Online!
Filmin Yayınlanma Tarihi: 2019 
WWW
Şuan Online!
BroserBros Kurucu Admin
*******
Admin





Ses Kodek: AC3


Audio Coding 3 (AC3)






Aslan Kral



Teknik Detaylar


Kod :
General
Complete name                            : Aslan.Kral.2019.720P.BLURAY.x264.TR.Filmbol.mkv
Format                                   : Matroska
Format version                           : Version 4 / Version 2
File size                                : 1.23 GiB
Duration                                 : 1h 58mn
Overall bit rate                         : 1 485 Kbps
Movie name                               : Aslan Kral (2019) - Filmbol.org
Encoded date                             : UTC 2019-11-24 18:28:45
Writing application                      : mkvmerge v35.0.0 ('All The Love In The World') 64-bit
Writing library                          : libebml v1.3.9 + libmatroska v1.5.2

Video
ID                                       : 1
Format                                   : AVC
Format/Info                              : Advanced Video Codec
Format profile                           : [email protected]
Format settings, CABAC                   : Yes
Format settings, ReFrames                : 4 frames
Codec ID                                 : V_MPEG4/ISO/AVC
Duration                                 : 1h 58mn
Bit rate                                 : 1 100 Kbps
Width                                    : 1 280 pixels
Height                                   : 714 pixels
Display aspect ratio                     : 16:9
Frame rate mode                          : Constant
Frame rate                               : 23.976 (24000/1001) fps
Color space                              : YUV
Chroma subsampling                       : 4:2:0
Bit depth                                : 8 bits
Scan type                                : Progressive
Bits/(Pixel*Frame)                       : 0.050
Stream size                              : 930 MiB (74%)
Title                                    : 720P - Filmbol.org
Writing library                          : x264 core 158
Default                                  : Yes
Forced                                   : No

Audio
ID                                       : 2
Format                                   : AC-3
Format/Info                              : Audio Coding 3
Mode extension                           : CM (complete main)
Format settings, Endianness              : Big
Codec ID                                 : A_AC3
Duration                                 : 1h 58mn
Bit rate mode                            : Constant
Bit rate                                 : 384 Kbps
Channel(s)                               : 6 channels
Channel positions                        : Front: L C R, Side: L R, LFE
Sampling rate                            : 48.0 KHz
Frame rate                               : 31.250 fps (1536 spf)
Compression mode                         : Lossy
Stream size                              : 325 MiB (26%)
Title                                    : Türkçe - Filmbol.org
Language                                 : Turkish
Default                                  : Yes
Forced                                   : No

Text
ID                                       : 3
Format                                   : UTF-8
Codec ID                                 : S_TEXT/UTF8
Codec ID/Info                            : UTF-8 Plain Text
Duration                                 : 5s 422ms
Bit rate                                 : 14 bps
Count of elements                        : 1
Stream size                              : 10.0 Bytes (0%)
Title                                    : KISIM
Language                                 : Turkish
Default                                  : Yes
Forced                                   : Yes

Film Detayları


Aslan Kral

Aslan Kral

Aslan Kral


Film Fragmanı


Film Detayları

Mini 720P İndir



Uptobox ile indir

DosyaUpload ile indir

Mega linki şuan da gizli. Kullanıma açmak için konuya yorum yapın ve ardından sayfayı yenileyin.

Mega


MediaFire ile indir

Şuan Offine!
Şuan Offine!
emreakbdk Uzman Üye
**
Uzman Üye

  • Konular0
  • Mesajlar14
  • Rep puanı 0
teşekkürler
Şuan Offine!
Şuan Offine!
baris020 Yeni Üye
*
Üye

  • Konular0
  • Mesajlar3
  • Rep puanı 0
eline sağlık inşallah çalışıyordur
Şuan Offine!
Şuan Offine!
uvenix Süper Üye
***
Super Üye

  • Konular0
  • Mesajlar27
  • Rep puanı 0
teşekkürler
Şuan Offine!
Şuan Offine!
firatcan141 Uzman Üye
**
Uzman Üye

  • Konular0
  • Mesajlar17
  • Rep puanı 0
güzel
Şuan Offine!
Şuan Offine!
Ahmet34 Süper Üye
***
Super Üye

  • Konular0
  • Mesajlar30
  • Rep puanı 0
efsane
Şuan Offine!
Şuan Offine!
Ahmet576 Yeni Üye
*
Üye

  • Konular0
  • Mesajlar1
  • Rep puanı 0
Eyw.............
Şuan Offine!
Şuan Offine!
asadsasdasda Yeni Üye
*
Üye

  • Konular0
  • Mesajlar4
  • Rep puanı 0
asdasda
Şuan Offine!
Şuan Offine!
Gorkel Özkutlu Yeni Üye
*
Üye

  • Konular0
  • Mesajlar3
  • Rep puanı 0
Niceü
Şuan Offine!
Şuan Offine!
46_erdogan_46 Yeni Üye
*
Üye

  • Konular0
  • Mesajlar1
  • Rep puanı 0
Kral olmuş


Konu ile Alakalı Benzer Konular
Konular Yazar Yorumlar Okunma Son Yorum
Filmin Yayınlanma Tarihi: 2007
Harry Potter ve Zümrüdüanka Yoldaşlığı (2007) Türkçe Dublaj BLURAY m720P İndir BroserBros 7 1,051 05-03-2021, Saat: 01:31
Son Yorum: gonenoya
Filmin Yayınlanma Tarihi: 2005
Harry Potter ve Ateş Kadehi (Goblet of Fire) Türkçe Dublaj BLURAY m720P İndir BroserBros 15 2,111 05-03-2021, Saat: 01:30
Son Yorum: gonenoya
Filmin Yayınlanma Tarihi: 2004
Harry Potter ve Azbakan Tutsağı (Prisoner of Azkaban) Türkçe Dublaj m720P İndir BroserBros 20 1,931 05-03-2021, Saat: 01:29
Son Yorum: gonenoya
Filmin Yayınlanma Tarihi: 2002
Harry Potter ve Sırlar Odası (Chamber of Secrets) Türkçe Dublaj BLURAY m720P İndir BroserBros 19 2,867 05-03-2021, Saat: 01:27
Son Yorum: gonenoya
Filmin Yayınlanma Tarihi: 2019
Godzilla 2: Canavarlar Kralı (King of the Monsters) Türkçe Dublaj BLURAY m720P İndir BroserBros 15 1,735 02-03-2021, Saat: 18:39
Son Yorum: OsmanSKMN

Hızlı Menü: