Filmbol Forum Film İndir 1080P v Aslan Kral (The Lion King) Türkçe Dublaj BLURAY m1080P İndir
Filmbol'da moderatör olmak ister misiniz? Bizimle iletişime geçmek için tıklayın!
Aslan Kral (The Lion King) Türkçe Dublaj BLURAY m1080P İndir
BroserBros
Aslan Kral (The Lion King) Türkçe Dublaj BLURAY m1080P İndir
45
4342
  • Derecelendirme: 3.33/5 - 3 oy
  • 1
  • 2
  • 3
  • 4
  • 5
Konuyu Okuyanlar:1 Ziyaretçi
Şuan Online!
Filmin Yayınlanma Tarihi: 2019 
Şuan Online!
BroserBros Kurucu Admin
*******
Admin

indirme türü


Bulut + Premium

Vizyon Tarihi


19 Haziran 2019

Boyutlar


2,05

diller


[TR]

altyazilar


KISIM [Eklenebilir]

Video Format: Mkv


Matroska (.MKV)

Video Detay


MPEG-4, 2100 Kbps, 1,72GB

imdb puanı


7,0 / 10,0 / 140,000

süre


118 dakika

Ses Kodek: AC3


Audio Coding 3 (AC3)

Ses Detay


384 Kbps, 6 Kanal, 325Mb

Editör Puanı


7,4

Genislik Yukseklik


1920-1072

sürüm


x264 | 1080P




Aslan Kral


Film Detayları

Aslan Kral, yavru bir aslan olan Simba’nın maceralarını konu ediyor. Ormanın kralı olan babası Mufasa'ya hayran bir yavru aslan olarak mutlu bir hayat süren Simba, sinsi amcası Scar'ın planlarından habersizdir. Kral olmak için fırsat kollayan Scar, Mufasa'yı öldürdükten sonra Simba için tehlike baş gösterir. Amcasının ihaneti ve babasının kaybı ile yıkılan Simba sürgüne gider. Zamanı geldiğinde hakkı olanı almak için geri dönecek ve amcasına yaptıklarının bedelini ödetecektir...

Aslan Kral (The Lion King) Filmi Imdb'den 140,000 kişi tarafından oylandı ve 7,0 puan aldı. Bu film için editör puanı 7,4 olarak belirlendi. İyi Seyirler!


Teknik Detaylar


Kod :
General
Complete name                            : Aslan.Kral.2019.1080P.BLURAY.x264.TR.Filmbol.mkv
Format                                   : Matroska
Format version                           : Version 4 / Version 2
File size                                : 2.05 GiB
Duration                                 : 1h 58mn
Overall bit rate                         : 2 485 Kbps
Movie name                               : Aslan Kral (2019) - Filmbol.org
Encoded date                             : UTC 2019-11-24 18:27:14
Writing application                      : mkvmerge v35.0.0 ('All The Love In The World') 64-bit
Writing library                          : libebml v1.3.9 + libmatroska v1.5.2

Video
ID                                       : 1
Format                                   : AVC
Format/Info                              : Advanced Video Codec
Format profile                           : High@L4.1
Format settings, CABAC                   : Yes
Format settings, ReFrames                : 4 frames
Codec ID                                 : V_MPEG4/ISO/AVC
Duration                                 : 1h 58mn
Bit rate                                 : 2 100 Kbps
Width                                    : 1 920 pixels
Height                                   : 1 072 pixels
Display aspect ratio                     : 16:9
Frame rate mode                          : Constant
Frame rate                               : 23.976 (24000/1001) fps
Color space                              : YUV
Chroma subsampling                       : 4:2:0
Bit depth                                : 8 bits
Scan type                                : Progressive
Bits/(Pixel*Frame)                       : 0.043
Stream size                              : 1.73 GiB (84%)
Title                                    : 1080P - Filmbol.org
Writing library                          : x264 core 158
Default                                  : Yes
Forced                                   : No

Audio
ID                                       : 2
Format                                   : AC-3
Format/Info                              : Audio Coding 3
Mode extension                           : CM (complete main)
Format settings, Endianness              : Big
Codec ID                                 : A_AC3
Duration                                 : 1h 58mn
Bit rate mode                            : Constant
Bit rate                                 : 384 Kbps
Channel(s)                               : 6 channels
Channel positions                        : Front: L C R, Side: L R, LFE
Sampling rate                            : 48.0 KHz
Frame rate                               : 31.250 fps (1536 spf)
Compression mode                         : Lossy
Stream size                              : 325 MiB (15%)
Title                                    : Türkçe - Filmbol.org
Language                                 : Turkish
Default                                  : Yes
Forced                                   : No

Text
ID                                       : 3
Format                                   : UTF-8
Codec ID                                 : S_TEXT/UTF8
Codec ID/Info                            : UTF-8 Plain Text
Duration                                 : 5s 422ms
Bit rate                                 : 14 bps
Count of elements                        : 1
Stream size                              : 10.0 Bytes (0%)
Title                                    : KISIM
Language                                 : Turkish
Default                                  : Yes
Forced                                   : Yes

Film Detayları


Aslan Kral

Aslan Kral

Aslan Kral


Film Fragmanı


Film Detayları

Mini 1080P İndir



Uptobox ile indir

LetsUpload ile indir

DosyaUpload ile indir

Mega ile indir

MediaFire ile indir

Şuan Offine!
Şuan Offine!
atil72 Yeni Üye
*
Üye

  • Konular0
  • Mesajlar3
  • Rep puanı 0
Çok Güzel Teşekkür.
Şuan Offine!
Şuan Offine!
Hellenger28 Uzman Üye
**
Uzman Üye

  • Konular0
  • Mesajlar15
  • Rep puanı 0
Tavsiye ederimm Wink
Şuan Offine!
Şuan Offine!
mhmmdysf Uzman Üye
**
Uzman Üye

  • Konular0
  • Mesajlar6
  • Rep puanı 0
Teşekkürler
Şuan Offine!
Şuan Offine!
Murat94 Süper Üye
***
Super Üye

  • Konular0
  • Mesajlar36
  • Rep puanı 0
Süper
Şuan Offine!
Şuan Offine!
KrkyTR Yeni Üye
*
Üye

  • Konular0
  • Mesajlar5
  • Rep puanı 0
güzel film
Şuan Offine!
Şuan Offine!
baris020 Yeni Üye
*
Üye

  • Konular0
  • Mesajlar3
  • Rep puanı 0
eline sağlık teşekkürler
Şuan Offine!
Şuan Offine!
mustafa21 Yeni Üye
*
Üye

  • Konular0
  • Mesajlar1
  • Rep puanı 0
Çok güzel olmuş elinize emeğinize sağlık teşekkürd
Şuan Offine!
Şuan Offine!
jimyy313 Yeni Üye
*
Üye

  • Konular0
  • Mesajlar1
  • Rep puanı 0
super
Şuan Offine!
Şuan Offine!
concovanni Uzman Üye
**
Uzman Üye

  • Konular0
  • Mesajlar12
  • Rep puanı 1
teşekkürler


Konu ile Alakalı Benzer Konular
Konular Yazar Yorumlar Okunma Son Yorum
Filmin Yayınlanma Tarihi: 2019
Tolkien (2019) Türkçe Dublaj BLURAY m1080P İndir BroserBros 4 428 24-11-2020, Saat: 15:29
Son Yorum: Rocklion17
Filmin Yayınlanma Tarihi: 2019
Ralph ve İnternet (Ralph Breaks the Internet) Türkçe Dublaj BLURAY m1080P İndir BroserBros 15 1,108 21-11-2020, Saat: 18:10
Son Yorum: miyaavc
Filmin Yayınlanma Tarihi: 2018
Venom: Zehirli Öfke (2018) Türkçe Dublaj Bluray m1080P İndir DRMOV 43 4,173 19-11-2020, Saat: 22:42
Son Yorum: Cyberboi84
Filmin Yayınlanma Tarihi: 2007
Harry Potter ve Zümrüdüanka Yoldaşlığı (2007) Türkçe Dublaj BLURAY m1080P İndir BroserBros 16 1,228 17-11-2020, Saat: 18:33
Son Yorum: bllsr
Filmin Yayınlanma Tarihi: 2005
Harry Potter ve Ateş Kadehi (Goblet of Fire) Türkçe Dublaj BLURAY 1080P İndir BroserBros 27 2,385 17-11-2020, Saat: 12:17
Son Yorum: bllsr

Hızlı Menü: