Filmbol Forum Film İndir BRRip XviD v Aşk. Düğün. Tekrar Et. (Love Wedding Repeat) - 2020 - TR - BRRip XviD
Moderatör Alımları Başladı! Başvuru yapmak için tıklayın.
Filmbol Premium'da %50'e varan indirim fırsatı!
Aşk. Düğün. Tekrar Et. (Love Wedding Repeat) - 2020 - TR - BRRip XviD
BroserBros
Aşk. Düğün. Tekrar Et. (Love Wedding Repeat) - 2020 - TR - BRRip XviD
0
31
  • Derecelendirme: 0/5 - 0 oy
  • 1
  • 2
  • 3
  • 4
  • 5
Konuyu Okuyanlar:1 Ziyaretçi
Şuan Online!
Filmin Yayınlanma Tarihi: 2020 
Şuan Online!
BroserBros Kurucu Admin
*******
Admin

Vizyon Tarihi


10 Nisan 2020

imdb puanı


5,5 / 10,000

süre


100 dakika

Editör Puanı


5,0 / 10

Video Format: Avi


Audio Video Interleave (.AVI)

Ses Kodek: MP3


MPEG-1 Audio Layer III (MP3)

sürüm


h263 | HDRip XviD

Boyutlar


1,21 GB



 Aşk. Düğün. Tekrar Et.



Jack kardeşinin düğünü için hazırlık yapmaya başlamıştır, her şey eksiksiz ve mükemmel olmalıdır. Jack herşey tamamlandıktan sonra düğüne hediye olarak bir eski sevgili davet eder ve bu ortalığın karışmasına sebep olacaktır...

Aşk. Düğün. Tekrar Et. (2020) (Love Wedding Repeat) Filmi Imdb'den 10,000 kişi tarafından oylandı ve 5,5 puan aldı. Bu film için editör puanı 5,0 olarak belirlendi. İyi Seyirler!

Teknik Detaylar

Kod :
General
Complete name                            : /root/Desktop/5/Aşk.Düğün.Tekrar.Et.2020.HDRip.XViD.TR.Filmbol.avi
Format                                  : AVI
Format/Info                              : Audio Video Interleave
File size                                : 1.21 GiB
Duration                                : 1h 40mn
Overall bit rate                        : 1 722 Kbps

Video
ID                                      : 0
Format                                  : MPEG-4 Visual
Format profile                          : Simple@L5
Format settings, BVOP                    : No
Format settings, QPel                    : No
Format settings, GMC                    : No warppoints
Format settings, Matrix                  : Default (H.263)
Codec ID                                : XVID
Codec ID/Hint                            : XviD
Duration                                : 1h 40mn
Bit rate                                : 1 581 Kbps
Width                                    : 720 pixels
Height                                  : 388 pixels
Display aspect ratio                    : 1.85:1
Frame rate                              : 24.000 fps
Color space                              : YUV
Chroma subsampling                      : 4:2:0
Bit depth                                : 8 bits
Scan type                                : Progressive
Compression mode                        : Lossy
Bits/(Pixel*Frame)                      : 0.236
Stream size                              : 1.11 GiB (92%)
Writing library                          : Lavc58.35.100

Audio
ID                                      : 1
Format                                  : MPEG Audio
Format version                          : Version 1
Format profile                          : Layer 3
Mode                                    : Joint stereo
Mode extension                          : MS Stereo
Codec ID                                : 55
Codec ID/Hint                            : MP3
Duration                                : 1h 40mn
Bit rate mode                            : Constant
Bit rate                                : 128 Kbps
Channel(s)                              : 2 channels
Sampling rate                            : 48.0 KHz
Compression mode                        : Lossy
Stream size                              : 92.3 MiB (7%)
Alignment                                : Aligned on interleaves
Interleave, duration                    : 24 ms (0.58 video frame)

Film Detayları


 Aşk. Düğün. Tekrar Et.

 Aşk. Düğün. Tekrar Et.

 Aşk. Düğün. Tekrar Et.


Film Fragmanı


Film Detayları


Uptobox ile indir

1Fichier ile indir

1Fichier'den İndiremiyor musun? Tıklayın!


Mega ile indir

Bunun için üzgünüz ancak, bu linke sadece premium üyeler erişebilir.

Filmbol Cloud



Konu ile Alakalı Benzer Konular
Konular Yazar Yorumlar Okunma Son Yorum
Filmin Yayınlanma Tarihi: 2014
Lego Filmi (The Lego Movie) - 2014 - TR - BRRip XviD BroserBros 0 18 11 saat önce
Son Yorum: BroserBros
Filmin Yayınlanma Tarihi: 2014
Nuh: Büyük Tufan (Noah) - 2014 - TR - BRRip XviD BroserBros 0 19 11 saat önce
Son Yorum: BroserBros
Filmin Yayınlanma Tarihi: 2014
Yarının Sınırında (Edge of Tomorrow) - 2014 - TR - BRRip XviD BroserBros 0 29 , Saat: 20:40
Son Yorum: BroserBros
Filmin Yayınlanma Tarihi: 2014
Hız Tutkusu (Need for Speed) - 2014 - TR - BRRip XviD BroserBros 3 88 , Saat: 12:10
Son Yorum: BroserBros
Filmin Yayınlanma Tarihi: 2014
300: Bir İmparatorluğun Yükselişi (300: Rise of an Empire - 300 Spartalı 2) - 2014 - TR - BRRip XviD BroserBros 0 62 04-06-2020, Saat: 13:39
Son Yorum: BroserBros

Hızlı Menü: