Filmbol Forum

Orjinalini görmek için tıklayınız: Adalet 2 (The Equalizer 2) Türkçe Dublaj Brrip-Xvid İndir
Şu anda (Arşiv) modunu görüntülemektesiniz. Orjinal Sürümü Görüntüle internal link

indirme türü


Bulut + Premium

vizyon tarihi


22 Ağustos 2018

Boyutlar


1,46

diller


[TR]

altyazilar


Yok [Eklenebilir]

Video Format: Avi


Audio Video Interleave (.AVI)

Video Detay


MPEG-4, 1598 Kbps, 1,35GB

imdb puanı


6,8 / 10,0 / 90,000

süre


121 dakika

Ses Kodek: MP3


MPEG-1 Audio Layer III (MP3)

Ses Detay


128 Kbps, 2 Kanal, 111Mb

Editör Puanı


7,4

Genislik Yukseklik


720-300

sürüm


h263 | Brrip-Xvid



Film Detayları

Adalet 2 (2018) Türkçe Dublaj Bluray Brrip-Xvid İndir | Kısa özet:
Robert McCall, çarasizlere ve adalet bekleyenlere süresiz bir adalet sağlar. Ancak bu tanımadığı kişilerdir ve sadece adalet bekleyenlerdir. Peki adalet bekleyen kişi bir tanıdığı ve hatta sevdiği biri ise, Robert ne kadar ileri gidebilir?
Adalet 2 (The Equalizer 2) Filmi İmdb'den 90.000 kişi tarafından oylandı ve 6,8 puan aldı. Bu film için editör puanı 7,4 olarak belirlendi. İyi Seyirler!


Teknik Detaylar


Kod:
General
Complete name                            : The.Equalizer.2.2018.BRRip.XviD.TR.Filmbol.avi
Format                                   : AVI
Format/Info                              : Audio Video Interleave
File size                                : 1.47 GiB
Duration                                 : 2h 0mn
Overall bit rate                         : 1 739 Kbps

Video
ID                                       : 0
Format                                   : MPEG-4 Visual
Format profile                           : Simple@L5
Format settings, BVOP                    : No
Format settings, QPel                    : No
Format settings, GMC                     : No warppoints
Format settings, Matrix                  : Default (H.263)
Codec ID                                 : XVID
Codec ID/Hint                            : XviD
Duration                                 : 2h 0mn
Bit rate                                 : 1 598 Kbps
Width                                    : 720 pixels
Height                                   : 300 pixels
Display aspect ratio                     : 2.40:1
Frame rate                               : 23.976 fps
Color space                              : YUV
Chroma subsampling                       : 4:2:0
Bit depth                                : 8 bits
Scan type                                : Progressive
Compression mode                         : Lossy
Bits/(Pixel*Frame)                       : 0.309
Stream size                              : 1.35 GiB (92%)
Writing library                          : Lavc58.18.100

Audio
ID                                       : 1
Format                                   : MPEG Audio
Format version                           : Version 1
Format profile                           : Layer 3
Mode                                     : Joint stereo
Mode extension                           : MS Stereo
Codec ID                                 : 55
Codec ID/Hint                            : MP3
Duration                                 : 2h 0mn
Bit rate mode                            : Constant
Bit rate                                 : 128 Kbps
Channel(s)                               : 2 channels
Sampling rate                            : 48.0 KHz
Compression mode                         : Lossy
Stream size                              : 111 MiB (7%)
Alignment                                : Aligned on interleaves
Interleave, duration                     : 24 ms (0.58 video frame)


Film Detayları


Adalet 2

Adalet 2

Adalet 2

Adalet 2

Adalet 2


Film Fragmanı


Film Detayları

Brrip İndir


Turbobit İle İndir

Uptobox ile indir

Cloud Ru ile indir

Dosya Co ile indir

Dosya Upload ile indir