Filmbol Forum

Orjinalini görmek için tıklayınız: Karayip Korsanları: 2 (Pirates Of Caribbaen: 2) Türkçe Dublaj m720P İndir
Şu anda (Arşiv) modunu görüntülemektesiniz. Orjinal Sürümü Görüntüle internal link

indirme türü


Bulut + Premium

Vizyon Tarihi


14 Haziran 2006

Boyutlar


1,50

diller


[TR]

altyazilar


Yok [Eklenebilir]

Video Format: Mkv


Matroska (.MKV)

Video Detay


MPEG-4, 840 Kbps, 0,85 GB

imdb puanı


7,3 / 10,0 / 600,000

süre


131 dakika

Ses Kodek: AC3


Audio Coding 3 (AC3)

Ses Detay


640 Kbps, 6 Kanal, 648 Mb

rarsifresi


filmbol.org

Editör Puanı


8,3

Genislik Yukseklik


1280x528

sürüm


x264 | 720P


Film Detayları

Jack Sparrow'un, Uçan Hollandalının kaptanı Davy Jones'e kan borcu vardır. Bu kan borcunu ödemediği taktirde başına gelebilecek sonuçları da göze aldığında Jack, özellikle Davy'nin kölesi olma konusun da, borcunu ödemek zorunda gibi gözükmektedir.

Karayip Korsanları 2: Ölü Adamın Sandığı (2006) (Pirates of the Caribbean 2: Dead Man's Chest) Filmi İmdb'den 600.000 kişi tarafından oylandı ve 7,3 puan aldı. Bu film için editör puanı 8,3 olarak belirlendi. İyi Seyirler!


Teknik Detaylar

Kod:
General
Complete name                            : Pirates.of.the.Caribbean.Dead.Man's.Chest.2006.720P.BLURAY.x264.TR.Filmbol.mkv
Format                                   : Matroska
Format version                           : Version 4 / Version 2
File size                                : 1.51 GiB
Duration                                 : 2 h 30 min
Overall bit rate                         : 1 431 kb/s
Movie name                               : Pirates of the Caribbean 2 (2006) / 720P / Filmbol.org
Encoded date                             : UTC 2018-08-30 16:45:56
Writing application                      : mkvmerge v15.0.0 ('Duel with the Devil') 64-bit
Writing library                          : libebml v1.3.5 + libmatroska v1.4.7

Video
ID                                       : 1
Format                                   : AVC
Format/Info                              : Advanced Video Codec
Format profile                           : High@L4
Format settings                          : CABAC / 7 Ref Frames
Format settings, CABAC                   : Yes
Format settings, ReFrames                : 7 frames
Codec ID                                 : V_MPEG4/ISO/AVC
Duration                                 : 2 h 21 min
Bit rate                                 : 840 kb/s
Width                                    : 1 280 pixels
Height                                   : 528 pixels
Display aspect ratio                     : 2.40:1
Frame rate mode                          : Constant
Frame rate                               : 23.976 (24000/1001) FPS
Color space                              : YUV
Chroma subsampling                       : 4:2:0
Bit depth                                : 8 bits
Scan type                                : Progressive
Bits/(Pixel*Frame)                       : 0.052
Stream size                              : 850 MiB (55%)
Title                                    : 720P - Filmbol.org
Writing library                          : x264 core 129 r2245 bc13772
Default                                  : Yes
Forced                                   : No

Audio
ID                                       : 2
Format                                   : AC-3
Format/Info                              : Audio Coding 3
Codec ID                                 : A_AC3
Duration                                 : 2 h 30 min
Bit rate mode                            : Constant
Bit rate                                 : 640 kb/s
Channel(s)                               : 6 channels
Channel positions                        : Front: L C R, Side: L R, LFE
Sampling rate                            : 48.0 kHz
Frame rate                               : 31.250 FPS (1536 SPF)
Bit depth                                : 16 bits
Compression mode                         : Lossy
Stream size                              : 690 MiB (45%)
Title                                    : Türkçe - Filmbol.org
Language                                 : Turkish
Service kind                             : Complete Main
Default                                  : Yes
Forced                                   : No



Film Detayları


Karayip Korsanları 2

Karayip Korsanları 2

Karayip Korsanları 2

Karayip Korsanları 2

Karayip Korsanları 2




Film Fragmanı


Film Detayları

Mini 720P İndir


Mega ile indir

Uptobox ile indir

CloudRu ile indir

Güzel
Hsriks
miyaav
jdjdj
iyi fim
muazzam
Guzel