Filmbol Forum

Orjinalini görmek için tıklayınız: Pasifik Savaşı 2: İsyan (Pacific Rim 2: Uprising) Türkçe Dublaj Brrip-Xvid İndir
Şu anda (Arşiv) modunu görüntülemektesiniz. Orjinal Sürümü Görüntüle internal link

indirme türü


Bulut + Premium

vizyon tarihi


23 Mart 2018

Boyutlar


1,34

diller


[TR]

altyazilar


Yok [Eklenebilir]

Video Format: Avi


Audio Video Interleave (.AVI)

Video Detay


MPEG-4, 1599 Kbps, 1,24 GB

imdb puanı


5,7 / 10,0 / 65,000

süre


111 dakika

Ses Kodek: MP3


MPEG-1 Audio Layer III (MP3)

Ses Detay


128 Kbps, 2 Kanal, 101 Mb

rarsifresi


Filmbol.org

Editör Puanı


6,3

Genislik Yukseklik


720x302

sürüm


h263 | Brrip-Xvid



Film Detayları

Savaş bitmiş ve insanlık kazanmıştı yada insanlar öyle sanıyordu. Neden gezegenimize gelmişlerdi? Ne istediler? İnsanlar bunun cevabını ararken kajular içeriden kuyu kazmış, yeni büyük saldırılarına hazırlanıyorlardı.

Pasifik Savaşı 2: İsyan (Pacifik Rim 2: Uprising) Filmi İmdb'den 65.000 kişi tarafından oylandı ve 5,7 puan aldı. Bu film için editör puanı 7,0 olarak belirlendi. İyi Seyirler!


Teknik Detaylar
Kod:
General
Complete name                            : Pacific.Rim.Uprising.2018.BRRip.XviD.TR.avi
Format                                   : AVI
Format/Info                              : Audio Video Interleave
File size                                : 1.35 GiB
Duration                                 : 1 h 50 min
Overall bit rate                         : 1 740 kb/s

Video
ID                                       : 0
Format                                   : MPEG-4 Visual
Format profile                           : Simple@L5
Format settings, BVOP                    : No
Format settings, QPel                    : No
Format settings, GMC                     : No warppoints
Format settings, Matrix                  : Default (H.263)
Codec ID                                 : XVID
Codec ID/Hint                            : XviD
Duration                                 : 1 h 50 min
Bit rate                                 : 1 599 kb/s
Width                                    : 720 pixels
Height                                   : 302 pixels
Display aspect ratio                     : 2.40:1
Frame rate                               : 23.976 (24000/1001) FPS
Color space                              : YUV
Chroma subsampling                       : 4:2:0
Bit depth                                : 8 bits
Scan type                                : Progressive
Compression mode                         : Lossy
Bits/(Pixel*Frame)                       : 0.307
Stream size                              : 1.24 GiB (92%)
Writing library                          : Lavc57.107.100

Audio
ID                                       : 1
Format                                   : MPEG Audio
Format version                           : Version 1
Format profile                           : Layer 3
Format settings                          : Joint stereo / MS Stereo
Codec ID                                 : 55
Codec ID/Hint                            : MP3
Duration                                 : 1 h 50 min
Bit rate mode                            : Constant
Bit rate                                 : 128 kb/s
Channel(s)                               : 2 channels
Sampling rate                            : 48.0 kHz
Frame rate                               : 41.667 FPS (1152 SPF)
Compression mode                         : Lossy
Stream size                              : 101 MiB (7%)
Alignment                                : Aligned on interleaves
Interleave, duration                     : 24  ms (0.58 video frame)




Film Detayları


Pasifik Savasi 2

Pasifik Savasi 2

Pasifik Savasi 2

Pasifik Savasi 2

Pasifik Savasi 2


Film Fragmanı


Film Detayları

Brrip İndir


Turbobit İle İndir

Mega ile indir

Uptobox ile indir

Cloud Ru ile indir